<?xml version="1.0" standalone="no"?>
<!DOCTYPE svg PUBLIC "-//W3C//DTD SVG 1.1//EN" "http://www.w3.org/Graphics/SVG/1.1/DTD/svg11.dtd" >
<svg xmlns="http://www.w3.org/2000/svg" xmlns:xlink="http://www.w3.org/1999/xlink" version="1.1">
<metadata>
Created by FontForge 20161003 at Sun Dec 16 22:19:45 2018
 By www-data
Copyright (c) 2019 by fontiran.com. All rights reserved.
</metadata>
<defs>
<font id="IRANYekanWeb-ExtraBlack" horiz-adv-x="0" >
  <font-face 
    font-family="IRANYekanWeb ExtraBlack"
    font-weight="950"
    font-stretch="normal"
    units-per-em="2200"
    panose-1="2 11 5 6 3 8 4 2 2 4"
    ascent="1760"
    descent="-440"
    x-height="1203"
    cap-height="1540"
    bbox="-575 -1295 3654 2833"
    underline-thickness="100"
    underline-position="-850"
    unicode-range="U+001D-FEFF"
  />
<missing-glyph horiz-adv-x="1229" 
d="M102 -362v1806h1024v-1806h-1024zM217 -248h795v1577h-795v-1577z" />
    <glyph glyph-name="uni06440627.isol" unicode="&#xfedf;&#xfe8e;" horiz-adv-x="1401" arabic-form="isolated" 
d="M85 -97v555h507q86 0 122 11q42 12 53 33q19 30 22.5 93.5t3.5 161.5v733h508v-733q0 -85 -4.5 -186t-28.5 -202.5t-80 -190.5q-95 -145 -261 -214q-147 -61 -362 -61h-480zM70 1442l506 37l67 -885l-506 -39z" />
    <glyph glyph-name="uni06440627.fina" unicode="&#xfee0;&#xfe8e;" horiz-adv-x="1399" arabic-form="final" 
d="M642 594l-506 -39l-66 887l506 37zM1351 458h63v-556h-80q-76 0 -137.5 15t-104.5 35t-66 35l-23 15h-1q-36 -21 -76 -38q-146 -61 -361 -61h-480v555h480q102 0 146 11.5t56 32.5q19 30 22.5 93.5t3.5 161.5v733h508v-733q0 -52 -1.5 -110t-6.5 -118q0 -30 11.5 -50.5
t46.5 -20.5z" />
    <glyph glyph-name="uni06440623.isol" unicode="&#xfedf;&#xfe84;" horiz-adv-x="1401" arabic-form="isolated" 
d="M85 -97v555h507q86 0 122 11q42 12 53 33q19 30 22.5 93.5t3.5 161.5v733h508v-733q0 -85 -4.5 -186t-28.5 -202.5t-80 -190.5q-95 -145 -261 -214q-147 -61 -362 -61h-480zM70 1442l506 37l67 -885l-506 -39zM568 1704l-499 -164v160l115 37q-30 31 -47 68.5t-17 81.5
q0 68 46.5 129.5t112.5 82.5q34 10 70 10q38 0 70.5 -10t63.5 -23l-32 -133q-60 17 -101 17q-14 0 -25 -3q-23 -7 -41.5 -25.5t-18.5 -42.5q0 -9 3 -19q7 -25 35.5 -41.5t79.5 -16.5q13 0 29.5 2.5t50.5 11.5t97 30z" />
    <glyph glyph-name="uni06440623.fina" unicode="&#xfee0;&#xfe84;" horiz-adv-x="1399" arabic-form="final" 
d="M642 594l-506 -39l-66 887l506 37zM1351 458h63v-556h-80q-76 0 -137.5 15t-104.5 35t-66 35l-23 15h-1q-36 -21 -76 -38q-146 -61 -361 -61h-480v555h480q102 0 146 11.5t56 32.5q19 30 22.5 93.5t3.5 161.5v733h508v-733q0 -52 -1.5 -110t-6.5 -118q0 -30 11.5 -50.5
t46.5 -20.5zM571 1706l-499 -164v160l115 37q-30 31 -47 68.5t-17 81.5q0 68 46.5 129.5t112.5 82.5q34 10 70 10q38 0 70.5 -10t63.5 -23l-32 -133q-60 17 -101 17q-14 0 -25 -3q-23 -7 -41.5 -25.5t-18.5 -42.5q0 -9 3 -19q7 -25 35.5 -41.5t79.5 -16.5q13 0 29.5 2.5
t50.5 11.5t97 30z" />
    <glyph glyph-name="uni06440625.isol" unicode="&#xfedf;&#xfe88;" horiz-adv-x="1401" arabic-form="isolated" 
d="M85 -97v555h507q86 0 122 11q42 12 53 33q19 30 22.5 93.5t3.5 161.5v733h508v-733q0 -85 -4.5 -186t-28.5 -202.5t-80 -190.5q-95 -145 -261 -214q-147 -61 -362 -61h-480zM70 1442l506 37l67 -885l-506 -39zM655 -557l-499 -164v160l115 37q-30 31 -47 68.5t-17 81.5
q0 68 46.5 129.5t112.5 82.5q34 10 70 10q38 0 70.5 -10t63.5 -23l-32 -133q-60 17 -101 17q-14 0 -25 -3q-23 -7 -41.5 -25.5t-18.5 -42.5q0 -9 3 -19q7 -25 35.5 -41.5t79.5 -16.5q13 0 29.5 2.5t50.5 11.5t97 30z" />
    <glyph glyph-name="uni06440625.fina" unicode="&#xfee0;&#xfe88;" horiz-adv-x="1399" arabic-form="final" 
d="M642 594l-506 -39l-66 887l506 37zM1351 458h63v-556h-80q-76 0 -137.5 15t-104.5 35t-66 35l-23 15h-1q-36 -21 -76 -38q-146 -61 -361 -61h-480v555h480q102 0 146 11.5t56 32.5q19 30 22.5 93.5t3.5 161.5v733h508v-733q0 -52 -1.5 -110t-6.5 -118q0 -30 11.5 -50.5
t46.5 -20.5zM660 -556l-499 -164v160l115 37q-30 31 -47 68.5t-17 81.5q0 68 46.5 129.5t112.5 82.5q34 10 70 10q38 0 70.5 -10t63.5 -23l-32 -133q-60 17 -101 17q-14 0 -25 -3q-23 -7 -41.5 -25.5t-18.5 -42.5q0 -9 3 -19q7 -25 35.5 -41.5t79.5 -16.5q13 0 29.5 2.5
t50.5 11.5t97 30z" />
    <glyph glyph-name="uni06440622.isol" unicode="&#xfedf;&#xfe82;" horiz-adv-x="1478" arabic-form="isolated" 
d="M184 -97v555h507q86 0 122 11q42 12 53 33q19 30 22.5 93.5t3.5 161.5v733h508v-733q0 -85 -4.5 -186t-28.5 -202.5t-80 -190.5q-95 -145 -261 -214q-147 -61 -362 -61h-480zM169 1442l506 37l67 -885l-506 -39zM-132 1600l10 35q18 68 51 133.5t95 118.5l1 1
q106 89 318 89h554v-360h-554q-48 0 -71 -11t-32.5 -29t-15.5 -40l-9 -35z" />
    <glyph glyph-name="uni06440622.fina" unicode="&#xfee0;&#xfe82;" horiz-adv-x="1530" arabic-form="final" 
d="M772 594l-506 -39l-66 887l506 37zM1481 458h63v-556h-80q-76 0 -137.5 15t-104.5 35t-66 35l-23 15h-1q-36 -21 -76 -38q-146 -61 -361 -61h-480v555h480q102 0 146 11.5t56 32.5q19 30 22.5 93.5t3.5 161.5v733h508v-733q0 -52 -1.5 -110t-6.5 -118q0 -30 11.5 -50.5
t46.5 -20.5zM-92 1595l10 35q18 68 51 133.5t95 118.5l1 1q106 89 318 89h554v-360h-554q-48 0 -71 -11t-32.5 -29t-15.5 -40l-9 -35z" />
    <glyph glyph-name="uni06440671.isol" unicode="&#xfedf;&#xfb51;" horiz-adv-x="1318" 
d="M55 -97v555h507q86 0 122 11q42 12 53 33q19 30 22.5 93.5t3.5 161.5v733h508v-733q0 -85 -4.5 -186t-28.5 -202.5t-80 -190.5q-95 -145 -261 -214q-147 -61 -362 -61h-480zM40 1442l506 37l67 -885l-506 -39zM501 1565h-481l26 119h133l43 66l83 122q36 53 88 84t113 31
q47 0 91.5 -24t73.5 -73.5t29 -125.5q0 -74 -31 -117.5t-77 -62.5t-91 -19zM506 1868q-32 0 -65 -28.5t-64 -70.5t-57 -85h181q34 0 56.5 19t22.5 61q0 102 -74 104z" />
    <glyph glyph-name="uni06440671.fina" unicode="&#xfee0;&#xfb51;" horiz-adv-x="1399" 
d="M645 594l-506 -39l-66 887l506 37zM1354 458h63v-556h-80q-76 0 -137.5 15t-104.5 35t-66 35l-23 15h-1q-36 -21 -76 -38q-146 -61 -361 -61h-480v555h480q102 0 146 11.5t56 32.5q19 30 22.5 93.5t3.5 161.5v733h508v-733q0 -52 -1.5 -110t-6.5 -118q0 -30 11.5 -50.5
t46.5 -20.5zM501 1557h-481l26 119h133l43 66l83 122q36 53 88 84t113 31q47 0 91.5 -24t73.5 -73.5t29 -125.5q0 -74 -31 -117.5t-77 -62.5t-91 -19zM506 1860q-32 0 -65 -28.5t-64 -70.5t-57 -85h181q34 0 56.5 19t22.5 61q0 102 -74 104z" />
    <glyph glyph-name="allah" unicode="&#xfedf;&#xfee0;&#xfeea;" horiz-adv-x="2549" arabic-form="isolated" 
d="M1921 -106q-47 0 -112 8q-65 9 -121 29q-48 17 -89 42q-135 -79 -310 -79q-142 0 -244 39t-171 101q-68 62 -110 133q-42 72 -65 140q-22 68 -31 117q-3 11 -11 42q-8 32 -17 69q-14 52 -20 78q-36 -13 -49 -32q-9 -13 -9 -39q0 -27 10 -69q20 -83 42 -163t38 -133
l16 -53l-481 -141l-14 46q-13 46 -32 110q-19 65 -36 124t-25 88q-26 103 -26 196q0 169 84 305q134 203 380 260q85 18 153 31q69 14 94 18l19 3l273 -179l9 -40v-2q9 -40 22 -98q11 -45 21 -92q4 -15 7 -29q14 -61 26 -106l17 -69l6 -20q8 -42 24 -59q11 -11 30 -17t57 -6
q29 0 49 9q21 10 21 21v804l507 89v-893q0 -4 6 -13q7 -8 21 -15q15 -6 37 -6q29 0 50 10q22 11 22 18v459q0 179 -1 318v139l510 103v-1013q0 -48 -14 -128q-13 -79 -49 -162q-35 -82 -98 -146q-73 -76 -160 -112q-86 -35 -256 -35zM1894 1807q0 -2 1 -5q9 -29 18 -68
t9 -78q0 -68 -29 -112.5t-72 -66t-86 -21.5q-84 0 -140 46q-27 -23 -60 -34t-65 -11q-95 0 -148.5 53t-53.5 146v109h125v-109q0 -75 68 -75h9q7 0 22 4.5t28 20.5t13 50v109h126v-109q0 -76 71 -76h7q7 0 21.5 5.5t26.5 21.5t12 49q0 40 -22 110q-3 15 -7 32l118 40z
M1658 2190v-287l-129 -32v288z" />
    <glyph glyph-name="riyal" unicode="&#x631;&#xfef3;&#xfe8e;&#x644;" horiz-adv-x="3705" arabic-form="isolated" 
d="M738 -636q-188 0 -335.5 75.5t-238.5 218.5q-40 62 -62 129.5t-32 108.5v1q-21 88 -21 177q0 18 1 36q8 219 123 459l20 44l458 -215l-20 -44q-70 -152 -75 -263v-10q0 -66 24 -104q28 -39 76 -50.5t82 -11.5q54 0 106 5t80 22q13 8 23.5 32.5t10.5 86.5v1426h506v-1426
q0 -343 -153 -506q-97 -102 -254 -150q-130 -41 -319 -41zM2749 -636v554h146q146 0 200 57q52 65 52 213v586h507v-586q0 -183 -48.5 -343.5t-131.5 -251.5q-103 -118 -256 -175q-142 -54 -323 -54h-146zM1918 -183l220 -219l-220 -220l-219 220zM2387 -183l220 -219
l-220 -220l-219 220zM2196 -98q-91 0 -162.5 22t-123.5 55t-85 66q-34 33 -67.5 85t-56 125t-22.5 170v231.5t0.5 361.5t0.5 471h507v-1016q0 -7 3 -10.5t7 -4t5 -0.5h91v-556h-97zM2133 -97v556h263q-1 0 -10 48t-21 110t-21 110l-10 48l491 149l11 -57q10 -58 25.5 -140
t29.5 -161q16 -82 16 -152q0 -38 -5 -72q-7 -63 -31 -135t-66 -125q-91 -110 -206 -150h-2q-93 -29 -215 -29h-249z" />
    <glyph glyph-name="uni0621" unicode="&#x621;" horiz-adv-x="1050" arabic-form="isolated" 
d="M111 284l73 22q-40 56 -63 126q-18 66 -18 128q1 111 62 214q89 143 249 196h1q69 20 139 20q61 0 120 -11.5t116 -24.5l7 -2h1q6 -2 15 -4l25 -4l-75 -327l-25 7q-1 0 -27.5 6t-69.5 11q-16 1 -32 1q-91 0 -135 -53q-13 -19 -13.5 -32t1.5 -20q12 -36 54.5 -56
t107.5 -20q83 0 192 34l129 39l4 -443l-18 -5q-17 -5 -128 -39t-255.5 -78.5t-260.5 -80t-143 -43.5q-3 -1 -3 -2l-32 -9z" />
    <glyph glyph-name="uni0627" unicode="&#x627;" horiz-adv-x="708" arabic-form="isolated" 
d="M100 -98v1588h508v-1588h-508z" />
    <glyph glyph-name="uni0627.fina" unicode="&#x627;" horiz-adv-x="699" arabic-form="final" 
d="M617 -98q-91 0 -162.5 22t-123.5 55t-85 66q-34 33 -67.5 85t-56 125t-22.5 170v231.5t0.5 361.5t0.5 471h507v-1016q0 -7 3 -10.5t7 -4t5 -0.5h91v-556h-97z" />
    <glyph glyph-name="uni062D" unicode="&#x62d;" horiz-adv-x="1609" arabic-form="isolated" 
d="M805 -646q-85 0 -166 5.5t-156 27t-140 67.5q-200 146 -279 554q-14 68 -14 123v28.5t8 70.5q18 101 107 180.5t274 134.5q170 50 331 100.5t246 78.5q-139 34 -232 58.5t-170 47.5l-54 -101l-450 117q54 207 202 325q134 100 290 100q38 0 69 -5q47 -5 165 -48t351 -148
q76 -34 147 -67t164 -77l61 -487q-248 -91 -420.5 -154.5t-332.5 -123t-243 -92.5q16 -162 117 -162h732v-553h-607z" />
    <glyph glyph-name="uni062D.init" unicode="&#x62d;" horiz-adv-x="1632" arabic-form="initial" 
d="M1582 264l-50 -37q-50 -37 -160.5 -90.5t-291 -107t-362 -90.5t-638.5 -37h-95v556h49q144 0 260 2.5t207.5 7t162 10.5t122 12.5t87 13t58 12.5t34.5 10.5t16 7.5l5 2q-11 3 -75 16t-144.5 29t-142.5 27l-62 12l-31 -73l-444 125q67 245 256 356h1q105 58 216 58
q63 0 123 -18q63 -19 194 -61t275 -88.5t248 -81.5l104 -34z" />
    <glyph glyph-name="uni062D.medi" unicode="&#x62d;" horiz-adv-x="1665" arabic-form="medial" 
d="M1553 458h126v-556h-49q-115 0 -193.5 22t-126 52t-71.5 57t-29 38q-122 -44 -290.5 -82t-343 -62.5t-497.5 -24.5h-94v556h250q141 0 287.5 6t256.5 21t158 33l48 18q-11 3 -75 16t-144.5 28.5t-142.5 27.5l-62 12l-31 -73l-444 125q67 245 256 356h1q105 58 216 58
q63 0 123 -18q63 -19 194 -61t275 -89t248 -81l104 -34z" />
    <glyph glyph-name="uni062D.fina" unicode="&#x62d;" horiz-adv-x="1844" arabic-form="final" 
d="M1746 458h118v-556h-118q-205 0 -356 96q-111 72 -161 217q-190 -69 -380 -140t-285 -109q16 -162 116 -162h732v-553h-607q-84 0 -165.5 6t-156.5 27t-140 67q-200 146 -278 554q-15 70 -15 133q0 46 13.5 118t102 151.5t273.5 134.5q170 50 331 100.5t246 78.5l-69 17
q-70 17 -163 41.5t-170 47.5l-54 -100l-450 116q54 207 202 325h1q133 100 289 100q38 0 69 -4q47 -6 165 -49t351 -148q76 -34 147 -67t118 -55l46 -22l43 -342q4 -1 39.5 -6.5t83 -11t82.5 -5.5z" />
    <glyph glyph-name="uni062F" unicode="&#x62f;" horiz-adv-x="1246" arabic-form="isolated" 
d="M689 -104q-111 0 -239 26.5t-227.5 55t-133.5 40.5l-39 13l155 511l63 -22q63 -23 153 -50.5t173 -46.5t133 -19h10q-95 133 -195 264.5t-171 221.5l-72 89l411 281l61 -87q61 -87 148.5 -211.5t172.5 -244.5q84 -120 98 -257q3 -25 3 -54q0 -39 -5 -85q-9 -80 -49 -165
v-1q-65 -123 -183.5 -191t-266.5 -68z" />
    <glyph glyph-name="uni0631" unicode="&#x631;" horiz-adv-x="956" arabic-form="isolated" 
d="M0 -636v554h146q146 0 200 57q52 65 52 213v586h507v-586q0 -183 -48.5 -343.5t-131.5 -251.5q-103 -118 -256 -175q-142 -54 -323 -54h-146z" />
    <glyph glyph-name="uni0631.fina" unicode="&#x631;" horiz-adv-x="972" arabic-form="final" 
d="M906 774v-286q0 -5 2.5 -12t10 -12.5t22.5 -5.5h66v-556h-76q-26 0 -53 3q-21 -74 -57 -156.5t-93 -153.5l-1 -1q-104 -118 -257 -175q-143 -54 -323 -54h-147v553h147q145 0 200 57q52 65 52 213v586h507z" />
    <glyph glyph-name="uni0633" unicode="&#x633;" horiz-adv-x="2835" arabic-form="isolated" 
d="M1631 447q0 -19 10.5 -28.5t26.5 -9.5q13 0 25 8.5t12 29.5v325h481v-325q4 -38 43 -38q18 0 30.5 10.5t12.5 27.5q-24 318 -24 324v1l466 126l10 -49q10 -49 23 -118t23.5 -132t13.5 -94q1 -21 1 -42q0 -117 -36 -226.5t-95 -172.5q-150 -157 -385 -164h-1
q-88 0 -173.5 19.5t-153.5 58.5q-126 -78 -265 -78q-30 0 -58 2q-43 -268 -241 -409q-77 -53 -161 -81t-165.5 -38t-147.5 -10h-118q-354 0 -550 207q-92 102 -132 214.5t-48 210.5q-5 60 -5 104q0 27 2 49q15 237 144 522l20 45l463 -208l-20 -45q-92 -203 -101 -345v-5
q-2 -13 -2 -28q0 -19 3.5 -48.5t31.5 -61.5q53 -57 194 -57h118q95 0 139.5 15t59.5 32q23 26 23 73v735h506v-326z" />
    <glyph glyph-name="uni0633.init" unicode="&#x633;" horiz-adv-x="1879" arabic-form="initial" 
d="M1312 -98q-87 0 -173 19.5t-154 58.5q-126 -78 -265 -78q-99 0 -167 21.5t-118 52.5q-39 -35 -85 -51t-95 -19.5t-272 -3.5v556h158q36 0 44 13t8 37v266h482v-325q0 -19 11 -28.5t26 -9.5q14 0 25.5 8.5t11.5 29.5v325h481v-325q4 -38 43 -38q19 0 31 10.5t13 27.5
q-14 156 -19 241l-6 84l466 126l10 -49q10 -49 23 -118t23.5 -132t13.5 -94q1 -21 1 -42q0 -117 -36 -226.5t-94 -172.5q-151 -157 -386 -164h-1z" />
    <glyph glyph-name="uni0633.medi" unicode="&#x633;" horiz-adv-x="1886" arabic-form="medial" 
d="M1803 458h108v-557q-206 0 -286 11.5t-133 62.5q-84 -49 -171 -66q-43 -8 -87 -8h-5q-192 0 -290 75q-50 -32 -112 -53.5t-143 -21.5q-98 0 -165.5 21t-117.5 52q-32 -34 -70.5 -50t-116.5 -19.5t-239 -3.5v557h128q36 0 45.5 12.5t9.5 29.5v273h481v-326q0 -12 8.5 -24
t25.5 -12q13 0 24 6.5t11 29.5v326h480v-326q0 -13 8 -24.5t24 -11.5q13 0 23 10t10 26v326h481v-283q0 -21 18 -26.5t51 -5.5z" />
    <glyph glyph-name="uni0633.fina" unicode="&#x633;" horiz-adv-x="2883" arabic-form="final" 
d="M1631 447q0 -12 8 -24t26 -12q13 0 24 6.5t11 29.5v326h480v-326q0 -13 8 -24.5t24 -11.5q13 0 23 10t10 26v326h481v-283q0 -21 18 -26.5t50 -5.5h109v-557q-206 0 -286 11.5t-133 62.5q-84 -49 -171 -66q-43 -8 -87 -8h-5q-192 0 -290 75q-50 -32 -112 -53.5
t-143 -21.5q-30 0 -57 2q-43 -269 -242 -410q-77 -53 -161 -81t-165.5 -38t-147.5 -10h-118q-354 0 -550 207q-92 102 -132 214.5t-48 210.5q-5 60 -5 104q0 27 2 49q15 237 144 522l20 45l463 -208l-20 -45q-92 -203 -101 -345v-5q-1 -13 -1 -28q0 -19 3 -48.5t31 -61.5
q53 -57 194 -57h118q95 0 139.5 15t59.5 32q24 26 24 73q0 8 -1 17v718h506v-326z" />
    <glyph glyph-name="uni0635" unicode="&#x635;" horiz-adv-x="3085" arabic-form="isolated" 
d="M2166 405h283q86 0 119 22t33 75q0 38 -14 54q-14 15 -42 19q-27 3 -67 3q-58 0 -135 -39q-78 -39 -148 -105q-15 -14 -29 -29zM2491 1023q167 0 272 -40.5t163.5 -102.5t83.5 -130.5t30 -128.5q4 -49 4 -82v-22q0 -77 -13 -164q-14 -92 -53 -167q-61 -117 -172 -190h-1
q-63 -41 -127 -62q-62 -20 -117 -27q-52 -6 -87 -6h-760q-31 -188 -144 -318q-99 -113 -249 -167q-140 -51 -325 -51l-239 -1q-192 0 -336 87q-142 85 -233 224q-90 138 -116 271q-18 87 -18 181q0 33 2 68q20 259 167 555l22 43l454 -228l-23 -43q-17 -34 -31 -67
q-14 -35 -27 -68q-57 -154 -57 -263q0 -80 31 -136q18 -28 43 -43q28 -16 59 -22q35 -6 63 -6l239 1q91 0 134.5 13.5t58.5 30.5q9 9 18 40t9 98v673h507v-39v-92t-0.5 -93.5t-0.5 -47.5q43 81 118.5 171t177 169.5t222 130.5t251.5 51z" />
    <glyph glyph-name="uni0635.init" unicode="&#x635;" horiz-adv-x="2023" arabic-form="initial" 
d="M1429 1024q167 0 272 -40t163.5 -101.5t83.5 -130t30 -128.5q4 -49 4 -82v-24q0 -72 -13 -163t-53 -168q-62 -118 -172 -190q-63 -41 -126 -61.5t-117 -27t-89 -6.5h-692q-151 0 -278 70q-35 -18 -70 -31q-108 -39 -244 -39h-143v556h205v316h471v-272q17 32 59 93.5
t107.5 134.5t155 139.5t201.5 110.5t245 44zM1387 406q86 0 119 22t33 75q0 38 -14 54t-41.5 19t-67.5 3q-58 0 -135.5 -39t-147.5 -105q-15 -14 -29 -29h283z" />
    <glyph glyph-name="uni0635.medi" unicode="&#x635;" horiz-adv-x="2085" arabic-form="medial" 
d="M1387 406q86 0 119 22t33 75q0 38 -14 54t-41.5 19t-67.5 3q-57 0 -134.5 -39t-148.5 -105q-15 -14 -29 -29h283zM1980 458h120v-556l-660 1q-15 -1 -28 -1h-691q-152 0 -279 70q-35 -18 -70 -31q-108 -39 -243 -39h-144v556h206v316h470v-272q17 32 59 93.5t108 134.5
t155 139.5t201 110.5t245 44q167 0 272 -40t163.5 -101.5t83.5 -130t31 -127.5q4 -43 4 -73q0 -13 -1 -23v-11q0 -29 -2 -60z" />
    <glyph glyph-name="uni0635.fina" unicode="&#x635;" horiz-adv-x="3135" arabic-form="final" 
d="M2166 405h283q86 0 119 22t33 75q0 38 -14 54q-14 15 -42 19q-27 3 -67 3q-58 0 -135 -39q-78 -39 -148 -105q-15 -14 -29 -29zM3042 458h108v-556l-633 1q-24 -2 -43 -2h-760q-31 -188 -144 -318q-99 -113 -249 -167q-140 -51 -325 -51l-239 -1q-192 0 -336 87
q-142 85 -233 224q-90 138 -116 271q-18 87 -18 181q0 33 2 68q20 259 167 555l22 43l454 -228l-23 -43q-17 -34 -31 -67q-14 -35 -27 -68q-57 -154 -57 -263q0 -80 31 -136q18 -28 43 -43q28 -16 59 -22q35 -6 63 -6l239 1q91 0 134.5 13.5t58.5 30.5q9 9 18 40t9 98v673
h507v-39v-92t-0.5 -93.5t-0.5 -47.5q43 81 118.5 171t177 169.5t222 130.5t251.5 51q167 0 272 -40.5t163.5 -102.5t83.5 -130.5t30 -127.5q4 -50 4 -83v-22q0 -29 -2 -59z" />
    <glyph glyph-name="uni0637" unicode="&#x637;" horiz-adv-x="1649" arabic-form="isolated" 
d="M1557 764q42 -102 42 -244q0 -56 -11.5 -148.5t-53.5 -183.5q-60 -119 -173 -191q-63 -41 -125.5 -61.5t-116.5 -27t-89 -6.5h-960v556h182q12 19 26 38v996h507v-522q134 55 263 55h20q41 0 94.5 -2.5t111.5 -17t115 -46.5l1 -1q112 -68 166 -193zM1030 409
q85 0 118.5 21.5t33.5 75.5q0 37 -14.5 52.5t-41.5 19t-67 3.5q-58 0 -135.5 -38.5t-147.5 -104.5l-11 -11q-10 -9 -18 -18h283z" />
    <glyph glyph-name="uni0637.init" unicode="&#x637;" horiz-adv-x="1544" arabic-form="initial" 
d="M1452 764q42 -102 42 -244q0 -56 -11.5 -148.5t-53.5 -183.5q-60 -119 -173 -191q-63 -41 -125.5 -61.5t-116.5 -27t-89 -6.5h-940v556h162q12 19 26 38v996h507v-522q134 55 263 55h20q41 0 94.5 -2.5t111.5 -17t115 -46.5l1 -1q112 -68 166 -193zM925 409
q85 0 118.5 21.5t33.5 75.5q0 37 -14.5 52.5t-41.5 19t-67 3.5q-58 0 -135.5 -38.5t-147.5 -104.5l-11 -11q-10 -9 -18 -18h283z" />
    <glyph glyph-name="uni0637.medi" unicode="&#x637;" horiz-adv-x="1608" arabic-form="medial" 
d="M915 409q85 0 118.5 21.5t33.5 75.5q0 37 -14.5 52.5t-41.5 19t-67 3.5q-58 0 -135.5 -38.5t-147.5 -104.5l-11 -11q-10 -9 -18 -18h283zM-15 -98v556h152q12 19 26 38v996h507v-522q134 55 263 55h20q41 0 94.5 -2.5t111.5 -17t115 -46.5l1 -1q112 -68 166 -193l1 -1
q42 -102 42 -244q0 -27 -3 -62h142v-556h-1638z" />
    <glyph glyph-name="uni0637.fina" unicode="&#x637;" horiz-adv-x="1723" arabic-form="final" 
d="M1030 409q85 0 118.5 21.5t33.5 75.5q0 37 -14.5 52.5t-41.5 19t-67 3.5q-58 0 -135.5 -38.5t-147.5 -104.5l-11 -11q-10 -9 -18 -18h283zM70 -98v556h182q12 19 26 38v996h507v-522q134 55 263 55h20q41 0 94.5 -2.5t111.5 -17t115 -46.5l1 -1q112 -68 166 -193l1 -1
q42 -102 42 -244q0 -27 -3 -62h142v-556h-1668z" />
    <glyph glyph-name="uni0639" unicode="&#x639;" horiz-adv-x="1498" arabic-form="isolated" 
d="M780 -636q-149 0 -282.5 52t-235.5 151l-3 2l-2 3q-207 277 -207 510q0 181 68 327q67 142 195 243q36 29 77 53q-36 94 -36 198q0 120 43.5 232.5t128.5 194.5q83 77 191 116t225 39q89 0 175.5 -23.5t156.5 -53.5t112 -53l42 -24l-201 -406l-30 14q-30 13 -75.5 30
t-94.5 30.5t-86 13.5q-46 0 -70 -26q-22 -24 -22 -48v-6q0 -28 24.5 -55.5t104 -45.5t253.5 -18h178v-554h-85q-86 0 -199 0.5t-210 0.5h-120q-67 0 -111.5 -11t-78.5 -45q-21 -23 -31 -50t-13 -48.5t-3 -25.5q2 -73 42.5 -108.5t93.5 -45.5t86 -10h565v-553h-565z" />
    <glyph glyph-name="uni0639.init" unicode="&#x639;" horiz-adv-x="1264" arabic-form="initial" 
d="M879 458q11 -1 35 -1h47.5h28.5h185v-555h-1190v556h142q-9 48 -9 98q0 107 38 207.5t108 179.5q38 43 98 85t145.5 71t200.5 29q82 0 168 -23.5t157.5 -53.5t116.5 -53l44 -24l-201 -406l-29 14q-30 13 -74 30t-91.5 30.5t-82.5 13.5q-52 0 -78 -28q-22 -23 -22 -48
q0 -6 1 -12q19 -67 99 -88t163 -22z" />
    <glyph glyph-name="uni0639.medi" unicode="&#x639;" horiz-adv-x="1408" arabic-form="medial" 
d="M1250 457h173v-555h-478q-64 0 -126 21q-50 16 -104 52q-71 -36 -175 -53q-123 -20 -254 -20h-301v555h189q-4 4 -7 8l-22.5 28.5t-9.5 13.5l-52 66v85q0 86 19 152q19 65 47 113q27 46 56 76q31 36 80 69q51 34 121 56q72 23 166 23h292q133 0 251 -71l1 -1
q116 -74 173 -192v-2q40 -92 40 -181q0 -125 -79 -243zM861 659q36 41 52 65h-384q7 -12 35 -42t62 -65q35 -35 62 -61q28 -27 34 -32q24 18 63 57q40 38 76 78z" />
    <glyph glyph-name="uni0639.fina" unicode="&#x639;" horiz-adv-x="1509" arabic-form="final" 
d="M610 -23q-29 -24 -40.5 -46.5t-11.5 -53.5q0 -65 45.5 -113t108.5 -48h641l3 -551h-642q-135 0 -260 54q-118 52 -209 145q-92 93 -140 211l-1 1q-54 137 -54 301q0 224 146 391q81 86 147 125q-67 57 -161 157v97q0 58 17.5 138.5t70.5 160.5q65 96 167 146.5t229 50.5
h308q127 0 241 -66v-1q109 -68 167 -175q50 -102 50 -201q0 -121 -75 -238q-1 -2 -3 -4h171v-556h-413q-221 0 -364 159q-78 -37 -138 -84zM1012 723h-384q7 -12 35 -42t62.5 -64.5t62 -61t33.5 -31.5q24 18 63.5 56.5t75.5 78.5t52 64z" />
    <glyph glyph-name="uni0643.init" unicode="&#x643;" horiz-adv-x="1239" arabic-form="initial" 
d="M-15 -98v556h558q-63 65 -133 129q-112 101 -200 172q-54 43 -92 72l-39 29l48 404l901 410l211 -462l-537 -244q1 -2 3 -3q66 -65 147 -150q14 -15 28 -29l1 -1q56 -58 98 -108q44 -52 71 -110h1q36 -78 45 -144q7 -49 7 -94q0 -14 -1 -29q-3 -61 -31 -134
q-23 -59 -83 -120q-60 -62 -173 -103l-1 -1q-119 -40 -298 -40h-531z" />
    <glyph glyph-name="uni0643.medi" unicode="&#x643;" horiz-adv-x="1308" arabic-form="medial" 
d="M1274 -98q-118 0 -219.5 16.5t-194.5 67.5l-1 1q-46 28 -85 60q-50 -44 -111 -76q-134 -69 -291 -69h-387v556h357q68 0 128 11q-37 49 -85 113l-255 307l82 357l884 434l220 -455l-577 -287q43 -56 108 -140.5t125 -164.5q96 -132 141 -156q23 -13 58 -16t103 -3h49
v-556h-49z" />
    <glyph glyph-name="uni0643" unicode="&#x643;" horiz-adv-x="2180" arabic-form="isolated" 
d="M1043 1217l94 -158q-109 -67 -138 -100h39q20 1 41 1q50 0 101 -7q93 -20 128 -93q14 -30 14 -62q0 -47 -31 -99q-43 -66 -144 -105q-95 -36 -240 -50l-17 183q109 11 211 48q8 3 8 6q0 1 -4.5 2.5t-25 2t-47.5 -0.5q-30 0 -59.5 0.5t-48.5 3.5q-84 16 -117 78
q-16 29 -16 63q0 37 20 81q21 45 70 90q58 55 162 116zM1518 -98h-705q-132 0 -224 5q-89 3 -152 13q-193 31 -295 188l-1 1l-1 2q-81 150 -81 346q0 46 5 96v1l1 2q24 156 59 263l18 55l481 -142v-2q-2 -5 -8 -32q-1 -3 -1 -5v-1q-10 -41 -22 -94t-21.5 -94t-10.5 -46h1013
v1032h506l1 -1052q-11 -150 -38 -206v-1q-41 -102 -123 -181q-161 -147 -401 -148z" />
    <glyph glyph-name="uni0643.fina" unicode="&#x643;" horiz-adv-x="2156" arabic-form="final" 
d="M1519 -98h-705q-132 0 -224 5q-89 3 -152 13q-193 31 -295 188l-1 1l-1 2q-81 150 -81 346q0 46 5 96v1l1 2q24 156 59 263l18 55l481 -142v-2q-2 -5 -8 -32q-1 -3 -1 -5v-1q-10 -41 -22 -94t-21.5 -94t-10.5 -46h1013v1031h507l1 -1031h90v-556h-49q-110 0 -206 36
q-48 17 -89 42q-135 -78 -309 -78zM1044 1217l94 -158q-109 -67 -138 -100h39q20 1 41 1q50 0 101 -7q93 -20 128 -93q14 -30 14 -62q0 -47 -31 -99q-43 -66 -144 -105q-95 -36 -240 -50l-17 183q109 11 211 48q8 3 8 6q0 1 -4.5 2.5t-25 2t-47.5 -0.5q-30 0 -59.5 0.5
t-48.5 3.5q-84 16 -117 78q-16 29 -16 63q0 37 20 81q21 45 70 90q58 55 162 116z" />
    <glyph glyph-name="uni0644" unicode="&#x644;" horiz-adv-x="1569" arabic-form="isolated" 
d="M743 -636q-188 0 -335.5 75.5t-238.5 218.5q-40 62 -62 129.5t-32 108.5v1q-21 88 -21 177q0 18 1 36q8 219 123 459l20 44l458 -215l-20 -44q-70 -152 -75 -263v-10q0 -66 24 -104q28 -39 76 -50.5t82 -11.5q54 0 106 5t80 22q13 8 23.5 32.5t10.5 86.5v1426h506v-1426
q0 -343 -153 -506q-97 -102 -254 -150q-130 -41 -319 -41z" />
    <glyph glyph-name="uni0644.init" unicode="&#x644;" horiz-adv-x="726" arabic-form="initial" 
d="M-15 -98v556h134v1032h506l1 -1052q-11 -150 -38 -206v-1q-41 -102 -123 -181q-161 -147 -401 -148h-79z" />
    <glyph glyph-name="uni0644.medi" unicode="&#x644;" horiz-adv-x="702" arabic-form="medial" 
d="M627 458h90v-556h-49q-110 0 -206 36q-48 17 -89 42q-135 -78 -309 -78h-79v556h134v1031h507z" />
    <glyph glyph-name="uni0644.fina" unicode="&#x644;" horiz-adv-x="1562" arabic-form="final" 
d="M1469 1487v-1029h108v-556h-49q-35 0 -68 4q-28 -227 -144 -351q-97 -102 -254 -150q-130 -41 -319 -41q-188 0 -335.5 75.5t-238.5 218.5q-40 62 -62 129.5t-32 108.5v1q-21 88 -21 177q0 18 1 36q8 219 123 459l20 44l458 -215l-20 -44q-70 -152 -75 -263v-10
q0 -66 24 -104q28 -39 76 -50.5t82 -11.5q54 0 106 5t80 22q13 8 23.5 32.5t10.5 86.5v1426h506z" />
    <glyph glyph-name="uni0645" unicode="&#x645;" horiz-adv-x="1611" arabic-form="isolated" 
d="M1457 786q57 -96 80.5 -196.5t23.5 -173.5q0 -234 -152 -403q-149 -148 -319 -148q-46 0 -86 12q-108 31 -228 82t-199 89q0 -194 1 -617v-67h-508v1192l304 174l24 -13h1q7 -4 35 -19.5t58 -32.5q32 80 122 190q165 182 385 182q300 0 458 -251zM1081 323q39 0 54 43
q9 28 9 61q0 19 -3 40q-9 59 -42 96.5t-81 37.5q-38 0 -64 -24.5t-46.5 -67t-40.5 -97.5l28 -13q27 -13 68.5 -32t87.5 -39q16 -5 30 -5z" />
    <glyph glyph-name="uni0645.init" unicode="&#x645;" horiz-adv-x="1324" arabic-form="initial" 
d="M1260 472q1 -25 1 -49q0 -275 -149 -423q-83 -77 -159.5 -100t-108.5 -23q-16 -1 -32 -1q-91 0 -173 18t-149 43.5t-114 49.5q-58 -40 -138 -62.5t-147 -22.5h-106v556h76q49 0 67.5 5t23.5 13q22 26 46 111q7 25 17 55q6 25 37 90t95 138q156 166 380 166
q253 0 410 -216q62 -91 91 -184.5t32 -163.5zM819 304q19 10 33 52q9 29 9 61q0 15 -2 30q-5 32 -23 64.5t-46.5 55.5t-64.5 23t-61.5 -36t-41 -79.5t-22.5 -71.5q25 -21 67 -44.5t83 -40t60 -16.5q6 0 9 2z" />
    <glyph glyph-name="uni0645.medi" unicode="&#x645;" horiz-adv-x="1278" arabic-form="medial" 
d="M1239 458h54v-556h-80q-50 0 -96 22.5t-81 49.5q-76 -59 -143 -77q-64 -18 -92 -18h-3q-17 -2 -32 -2q-92 0 -174 25t-148 58t-111 59q-60 -57 -145 -87t-156 -30h-47v556h30q48 0 66.5 5.5t24.5 12.5q22 26 45 112q8 25 17 55q7 25 38 89.5t95 137.5q156 166 380 166
q113 0 200 -38.5t150 -101t103.5 -137t60 -148t19.5 -131.5q0 -6 1 -11t6 -8t18 -3zM773 305q18 11 32 53q10 29 10 62q0 14 -2 28q-5 32 -23 64.5t-46.5 55.5t-64.5 23q-37 0 -62.5 -36t-41 -79.5t-21.5 -71.5q25 -22 66.5 -45t82.5 -39.5t61 -16.5q6 0 9 2z" />
    <glyph glyph-name="uni0645.fina" unicode="&#x645;" horiz-adv-x="1620" arabic-form="final" 
d="M1584 458h51v-556h-80q-125 0 -182 78q-133 -115 -283 -115q-46 0 -86 11q-109 32 -228 83q-120 51 -200 89q0 -194 1 -617v-67h-507v1192l304 174l24 -13q1 0 1 -1q7 -3 35 -19q10 -5 20 -11q18 -10 38 -21q32 80 122 190q165 182 385 182q300 0 458 -251
q56 -97 80 -197q14 -59 19 -109q0 1 1 1q4 -23 27 -23zM1134 366q10 29 10 63q0 18 -3 38q-9 59 -42 96q-33 38 -82 38q-37 0 -63 -24q-26 -25 -47 -67q-20 -43 -40 -98l27 -13q27 -13 69 -32t87 -39q17 -6 30 -6q39 0 54 44z" />
    <glyph glyph-name="uni0647" unicode="&#x647;" horiz-adv-x="1155" arabic-form="isolated" 
d="M908 888q46 -50 93.5 -113t80.5 -142.5t33 -178.5q0 -100 -28.5 -198.5t-91.5 -178.5t-166 -128.5t-251 -48.5q-132 0 -225 35t-154.5 92.5t-96 126t-48.5 137t-14 124.5q0 83 30.5 162.5t70.5 142.5t71 101.5t34 40.5q-7 8 -17.5 19.5l-21 23t-17.5 20.5l-7 8l377 336
l42 -47q42 -46 101.5 -111t116 -127t88.5 -96zM572 349q49 0 79 30.5t30 85.5q0 18 -17.5 44t-40 50.5t-39.5 41.5l-17 17l-16 -16q-16 -15 -37 -38.5t-37 -50t-16 -48.5q0 -55 31.5 -85.5t79.5 -30.5z" />
    <glyph glyph-name="uni0647.init" unicode="&#x647;" horiz-adv-x="1915" arabic-form="initial" 
d="M1808 551q32 -97 32 -182q0 -64 -18 -121q-26 -91 -99 -174q-74 -85 -207 -135q-112 -42 -271 -42q-29 0 -59 1q-250 15 -388 35q-100 15 -127 19q-99 -27 -199 -38q-105 -12 -220 -12h-267v556h116q-6 40 -6 82q0 240 159 417h1q165 178 413 178q164 0 295 -80l218 221
l26 -24q25 -25 62 -61t73 -70.5t59 -56.5q82 -80 158 -154q192 -193 249 -359zM670 410q3 0 24 6t47.5 22t47 44t20.5 72q0 72 -42.5 114.5t-96.5 42.5q-24 0 -58.5 -13t-60.5 -47t-26 -97q0 -37 21.5 -64t49 -44.5t49.5 -26.5t25 -9zM1374 429v6q0 43 -62.5 103.5
t-148.5 128.5q-5 4 -9 8q29 -71 29 -139q0 -5 -0.5 -42.5t-23.5 -101.5q47 -21 96 -21q18 0 61 7t58 51z" />
    <glyph glyph-name="uni0647.medi" unicode="&#x647;" horiz-adv-x="1333" arabic-form="medial" 
d="M1126 -98q-14 0 -22 -9t-12 -19q-4 -13 -4 -28q0 -13 5.5 -35t35.5 -49l27 -22l-146 -376l-28 -4q-166 0 -293 37.5t-220 98.5t-156.5 133.5t-102 144t-56.5 129.5q-14 -1 -41 -1h-56.5h-50.5h-21v556h138q2 19 13 68.5t35 117.5t64 140t100 134.5t144 101.5t196 39
q128 0 214.5 -36.5t141 -90.5t83.5 -109q33 -61 49 -119.5t20.5 -105.5t4.5 -72q0 -34 -5 -68h165v-556h-222zM710 -213q-19 44 -22 97q-1 18 -1 35q0 34 4.5 74.5t11.5 73.5l7 32q-23 -11 -59.5 -24.5t-69.5 -23.5t-46 -12q13 -73 71.5 -144.5t103.5 -107.5zM535 425
q79 0 144 38t65 91q0 47 -21.5 64.5t-47.5 17.5q-44 -1 -73 -40.5t-45 -89t-22 -81.5z" />
    <glyph glyph-name="uni0647.fina" unicode="&#x647;" horiz-adv-x="1413" arabic-form="final" 
d="M1427 458v-556h-59q-310 0 -483 163q-83 -39 -160 -50t-149 -11q-176 0 -309 97q-152 114 -199 339q-13 57 -13 130q0 24 3.5 88.5t63.5 175.5q116 204 408 297l-14 60l495 113l11 -47q50 -216 80 -348q7 -33 14 -64q20 -92 37 -163.5t39 -155.5q18 -68 140 -68h95z
M652 456q59 36 59 100q0 2 -1 36.5t-22 105.5q-5 19 -10 37q-80 -35 -116.5 -52.5t-52.5 -33.5q-37 -40 -37 -88q0 -2 0.5 -27.5t30.5 -59.5q18 -19 39 -27t42 -8t39 5.5t29 11.5z" />
    <glyph glyph-name="uni0648" unicode="&#x648;" horiz-adv-x="1209" arabic-form="isolated" 
d="M560 405h155v96q0 47 -34 79q-34 31 -84 31q-49 0 -82 -32t-33 -78q0 -25 5 -47q6 -22 22 -35q17 -14 51 -14zM594 1043q234 0 404 -177v-1h1q157 -179 157 -439v-374q-1 -148 -44 -257q-42 -108 -107 -183q-63 -73 -128 -123l-2 -2q-39 -27 -106 -57q-68 -30 -191 -49
q-105 -17 -268 -17h-159v552h73q73 1 169 1h166h161q2 0 6 2.5t4 7.5t-4 7.5t-6 2.5q-84 0 -174 8t-173.5 33.5t-149.5 79t-105.5 143t-39.5 225.5q0 175 49.5 293.5t127.5 190t168 102.5t171 31z" />
    <glyph glyph-name="uni0648.fina" unicode="&#x648;" horiz-adv-x="1227" arabic-form="final" 
d="M560 405h155v96q0 47 -34 79q-34 31 -84 31q-49 0 -82 -32t-33 -78q0 -25 5 -47q6 -22 22 -35q17 -14 51 -14zM1155 458h87v-556h-100q-10 -58 -30 -107q-42 -108 -107 -183q-63 -73 -128 -123l-2 -2q-39 -27 -106 -57q-68 -30 -191 -49q-105 -17 -268 -17h-159v552h1
q7 0 72 1h496q2 0 6 2.5t4 7.5t-4 7.5t-6 2.5q-84 0 -174 8t-173.5 33.5t-149.5 79t-105.5 143t-39.5 225.5q0 175 49.5 293.5t127.5 190t168 102.5t171 31q234 0 404 -177v-1h1q147 -168 156 -407z" />
    <glyph glyph-name="uni0649" unicode="&#x649;" horiz-adv-x="1831" arabic-form="isolated" 
d="M750 -636q-139 0 -241.5 37t-174 91.5t-116.5 110.5q-80 98 -124 223.5t-44 256.5q0 138 24 253t61.5 213.5t81.5 185.5l22 43l454 -222l-21 -44q-115 -229 -115 -389q0 -86 24 -131t68 -61t104 -16h396q47 0 77 6.5t47 15.5q-69 18 -184 44q-135 31 -241 58l-26 7l-8 26
q-4 7 -20 79t-22 181q-1 23 -1 46q0 87 20 180q6 34 46 125t136 194q211 208 532 208q60 0 118.5 -11t110.5 -24l47 -13l-130 -494l-49 17q-69 24 -127 24q-161 0 -211 -160q64 -18 118 -32q117 -30 187 -52q189 -62 189 -284v-2q-3 -394 -239 -569q-69 -50 -143 -76.5
t-144.5 -35.5t-128.5 -9h-353z" />
    <glyph glyph-name="uni0649.fina" unicode="&#x649;" horiz-adv-x="1939" arabic-form="final" 
d="M786 -637q-353 0 -561 248q-175 225 -175 530q0 134 43.5 293t118.5 298l22 41l453 -219l-22 -44q-105 -214 -105 -369q1 -228 226 -228h266q23 0 72 0.5t95 1.5t64 2q-88 28 -168 40.5t-128 16.5l-48 4v480h1015v-556h-178v-10q0 -174 -84 -293q-72 -101 -201 -160
q-168 -76 -443 -76h-262z" />
    <glyph glyph-name="uni066E.init" unicode="&#x66e;" horiz-adv-x="817" 
d="M-15 -98v556h263q-1 0 -10 48t-21 110t-21 110l-10 48l491 149l11 -57q10 -58 25.5 -140t29.5 -161q16 -82 16 -152q0 -38 -5 -72q-7 -63 -31 -135t-66 -125q-91 -110 -206 -150h-2q-93 -29 -215 -29h-249z" />
    <glyph glyph-name="uni066E.medi" unicode="&#x66e;" horiz-adv-x="838" 
d="M765 -98q-152 0 -279 69q-34 -17 -69 -30q-109 -39 -244 -39h-188v556h247v315h507v-315h114v-556h-88z" />
    <glyph glyph-name="uni066E.fina" unicode="&#x66e;" horiz-adv-x="2234" 
d="M2099 458h155v-556q-180 0 -259 8.5t-126 45.5q-56 -29 -115 -41.5t-119.5 -15t-120.5 -2.5h-703q-140 0 -226 2t-150 13q-193 31 -294 187q-60 96 -75 219q-9 68 -9 131q0 51 6 98q5 40 17 93.5t26 105.5t25 87l10 35l482 -142l-64 -274h1034v324h506v-318z" />
    <glyph glyph-name="uni066F.init" unicode="&#x66f;" horiz-adv-x="1218" 
d="M1011 953q157 -180 157 -439v-71q0 -155 -77 -278q-78 -123 -224 -193q-145 -69 -348 -69h-534v555h93q-2 29 -2 56q0 176 52 296t134 192q82 70 174 100q91 29 169 29q234 0 404 -177l1 -1h1zM726 446v96q0 20 -10 45.5t-35.5 45t-72.5 19.5q-16 0 -43.5 -9t-49.5 -33
t-22 -68q0 -59 22.5 -77t67.5 -18q18 0 63 -1h80z" />
    <glyph glyph-name="uni066F.medi" unicode="&#x66f;" horiz-adv-x="1334" 
d="M1236 458h113v-556h-265q-113 0 -207 11t-207 38q-175 -49 -417 -49h-268v556h115q-5 39 -5 82q0 240 161 417q168 178 413 178q241 0 412 -178q161 -177 161 -417q0 -43 -6 -82zM669 418q6 1 27 8t46 22.5t43.5 41t18.5 62.5q0 12 -5 36t-19.5 49.5t-41 43.5t-69.5 18
q-44 0 -70.5 -18t-40.5 -43.5t-19 -49.5t-5 -36q0 -38 18.5 -63.5t43 -40.5t45.5 -22t28 -8z" />
    <glyph glyph-name="uni066F.fina" unicode="&#x66f;" horiz-adv-x="1885" 
d="M1206 405h155v96q0 47 -34 79q-34 31 -84 31q-49 0 -82 -32t-33 -78q0 -25 6 -47q5 -22 22 -35q16 -14 50 -14zM1802 458h93v-556h-106q-10 -58 -30 -107q-42 -108 -107 -183q-63 -73 -128 -123l-2 -2q-40 -27 -107 -57q-68 -30 -191 -49q-105 -17 -267 -17h-174
q-211 0 -373 77.5t-257 223.5l-1 1q-80 135 -96 253q-10 73 -10 142q0 43 4 85q14 235 144 523l20 44l462 -208l-20 -44q-92 -207 -101 -346q-1 -13 -1 -24q0 -69 25 -107q51 -69 204 -69h15v1h73q73 1 169 1h166h161q2 0 5.5 2.5t3.5 7.5t-3.5 7.5t-5.5 2.5q-85 0 -174.5 8
t-173 33.5t-150 79t-106 143t-39.5 225.5q0 175 50 293.5t128 190t168 102.5t170 31q235 0 405 -177v-1h1q147 -168 156 -407z" />
    <glyph glyph-name="uni06C1.init" unicode="&#x6c1;" horiz-adv-x="817" arabic-form="initial" 
d="M-15 -98v556h263q-1 0 -10 48t-21 110t-21 110l-10 48l491 149l11 -57q10 -58 25.5 -140t29.5 -161q16 -82 16 -152q0 -38 -5 -72q-7 -63 -31 -135t-66 -125q-91 -110 -206 -150h-2q-93 -29 -215 -29h-249zM349 -964q-116 0 -202 77q-97 94 -97 260q0 84 30 158t73.5 134
t87.5 103t74 67l30 23l222 -204l-25 -17q-25 -18 -56 -46t-53 -60q79 -25 130 -91.5t51 -150.5q0 -101 -81 -180q-84 -73 -184 -73z" />
    <glyph glyph-name="uni06C1.medi" unicode="&#x6c1;" horiz-adv-x="1301" arabic-form="medial" 
d="M847 -726q-69 0 -154 11.5t-173 44t-169 93.5q-110 86 -168 213q-54 118 -61 266h-136l-1 556h391l235 -234v-31v-90.5t0.5 -142t0.5 -94.5q14 99 53.5 202t110 191.5t176 143.5t251.5 55h113v-556h-166q-48 0 -78.5 -35.5t-30.5 -94.5q0 -63 37 -138l12 -25l-217 -335
h-26z" />
    <glyph glyph-name="uni06BE" unicode="&#x6be;" horiz-adv-x="2181" arabic-form="isolated" 
d="M2074 551q32 -97 32 -182q0 -64 -18 -121q-26 -91 -99 -174q-74 -85 -207 -135q-112 -42 -271 -42q-28 0 -58 1h-1q-249 15 -388 35q-99 15 -126 19q-99 -27 -200 -38q-108 -16 -212 -16q-250 0 -476 91l166 525l151 -56q-5 40 -6 82q0 240 160 417q165 178 414 178
q164 0 294 -80l218 221l26 -24q26 -25 62.5 -61t72.5 -70.5t59 -56.5q82 -80 158 -154q193 -193 249 -359zM936 410q3 0 24 6t47.5 22t47.5 44t21 72q0 72 -43 114.5t-97 42.5q-24 0 -58.5 -13t-60.5 -47t-26 -97q0 -37 21.5 -64t49.5 -44.5t49.5 -26.5t24.5 -9zM1640 429
q1 4 1 7q0 42 -63 102.5t-149 128.5q-4 4 -9 8q30 -74 30 -143q0 -3 -1 -39.5t-24 -100.5q47 -21 96 -21q18 0 61.5 7t57.5 51z" />
    <glyph glyph-name="uni06D2" unicode="&#x6d2;" horiz-adv-x="1724" arabic-form="isolated" 
d="M600 -656q-226 0 -391 153q-159 155 -159 452q0 98 20.5 168.5t57 124.5t85.5 100q166 151 387 151h342v-544h-407q-18 0 -23 -12t-5 -20t3 -16q8 -16 25 -16h1149v-541h-1084z" />
    <glyph glyph-name="uni06D2.fina" unicode="&#x6d2;" horiz-adv-x="1320" arabic-form="final" 
d="M622 -702q-225 0 -391 152q-159 155 -159 452q0 99 20.5 169.5t57 124t85.5 99.5q162 163 387 163h714v-556h-778q-22 0 -28.5 -12t-6.5 -20q0 -7 4 -15q9 -16 31 -16h674v-541h-610z" />
    <glyph glyph-name="uni06A9" unicode="&#x6a9;" horiz-adv-x="2061" arabic-form="isolated" 
d="M810 -97q-139 0 -225.5 2t-149.5 12q-186 30 -294 196q-60 93 -72 188.5t-12 158.5q0 51 6 99q7 59 25 133t35 131l16 56l483 -142l-11 -45q0 -4 -14.5 -64t-31.5 -139l-1 -1q-5 -21 -5 -29h807q-96 100 -197 187.5t-170.5 143t-73.5 58.5l-24 16l49 403l901 409
l210 -461l-537 -244q67 -65 150 -152l1 -1q26 -28 49 -52q49 -50 86 -95t62 -97q54 -119 54 -232q0 -88 -33 -173q-23 -58 -83 -121.5t-174 -104.5q-116 -40 -298 -40h-528z" />
    <glyph glyph-name="uni06A9.fina" unicode="&#x6a9;" horiz-adv-x="2067" arabic-form="final" 
d="M2033 -98q-119 0 -220 16.5t-193 68.5q-46 26 -87 60q-49 -44 -111 -76l-1 -1q-136 -68 -289 -68h-306q-139 0 -225.5 2t-149.5 13q-193 31 -294 186q-84 127 -84 328q0 57 7 119q5 40 17 93.5t25.5 105.5t23.5 87l10 35l484 -143l-68 -270l667 1l-349 427l82 358
l885 434l221 -456l-579 -286q42 -55 107 -139.5t127 -166.5q97 -132 141 -153q22 -13 57 -16t103 -3h48v-556h-49z" />
    <glyph glyph-name="uni06AF" unicode="&#x6af;" horiz-adv-x="2061" arabic-form="isolated" 
d="M809 -97q-139 0 -225.5 2t-149.5 12q-186 30 -294 196q-60 93 -72 188.5t-12 158.5q0 51 6 99q7 59 25 133t35 131l16 56l483 -142l-11 -45q0 -4 -14.5 -64t-31.5 -139l-1 -1q-5 -21 -5 -29h807q-96 100 -197 187.5t-170.5 143t-73.5 58.5l-24 16l49 403l901 409
l210 -461l-537 -244q67 -65 150 -152l1 -1q26 -28 49 -52q49 -50 86 -95t62 -97q54 -119 54 -232q0 -88 -33 -173q-23 -58 -83 -121.5t-174 -104.5q-116 -40 -298 -40h-528zM953.67 1342.5l13.5342 145.25l769.355 356.988l54.1357 -114.563z" />
    <glyph glyph-name="uni06AF.init" unicode="&#x6af;" horiz-adv-x="1239" arabic-form="initial" 
d="M-15 -98v556h558q-63 65 -133 129q-112 101 -200 172q-54 43 -92 72l-39 29l48 404l901 410l211 -462l-537 -244q1 -2 3 -3q66 -65 147 -150q14 -15 28 -29l1 -1q56 -58 98 -108q44 -52 71 -110h1q36 -78 45 -144q7 -49 7 -94q0 -14 -1 -29q-3 -61 -31 -134
q-23 -59 -83 -120q-60 -62 -173 -103l-1 -1q-119 -40 -298 -40h-531zM126 1342l13 142l739 349l52 -112z" />
    <glyph glyph-name="uni06AF.medi" unicode="&#x6af;" horiz-adv-x="1308" arabic-form="medial" 
d="M1284 -98q-118 0 -219.5 16.5t-194.5 67.5l-1 1q-46 28 -85 60q-50 -44 -111 -76q-134 -69 -291 -69h-387v556h357q68 0 128 11q-37 49 -85 113l-255 307l82 357l884 434l220 -455l-577 -287q43 -56 108 -140.5t125 -164.5q96 -132 141 -156q23 -13 58 -16t103 -3h49
v-556h-49zM227 1348l13 142l739 349l52 -112z" />
    <glyph glyph-name="uni06AF.fina" unicode="&#x6af;" horiz-adv-x="2067" arabic-form="final" 
d="M2042 -98q-119 0 -220 16.5t-193 68.5q-46 26 -87 60q-49 -44 -111 -76l-1 -1q-136 -68 -289 -68h-306q-139 0 -225.5 2t-149.5 13q-193 31 -294 186q-84 127 -84 328q0 57 7 119q5 40 17 93.5t25.5 105.5t23.5 87l10 35l484 -143l-68 -270l667 1l-349 427l82 358
l885 434l221 -456l-579 -286q42 -55 107 -139.5t127 -166.5q97 -132 141 -153q22 -13 57 -16t103 -3h48v-556h-49zM1001 1342l13 142l739 349l52 -112z" />
    <glyph glyph-name="uni06BA" unicode="&#x6ba;" horiz-adv-x="1662" arabic-form="isolated" 
d="M776 -636q-354 0 -550 207q-92 102 -132 214.5t-48 209.5q-5 60 -5 105q0 27 2 49q15 237 144 522l20 45l463 -208l-20 -45q-92 -203 -101 -345v-5q-1 -13 -1 -28q0 -19 3 -48.5t31 -61.5q53 -57 194 -57h118q95 0 139.5 15t59.5 32q24 26 24 73q0 8 -1 17v718h506v-710
q0 -390 -254 -570q-77 -53 -161 -81t-165.5 -38t-147.5 -10h-118z" />
    <glyph glyph-name="uni06BA.fina" unicode="&#x6ba;" horiz-adv-x="1697" arabic-form="final" 
d="M778 -636q-178 0 -309 48q-130 48 -217 131q-86 81 -137 182q-50 100 -65 221q-8 75 -8 139q0 34 2 64q16 234 144 522l20 45l463 -208l-20 -45q-91 -202 -100 -344v-6l-1 -3q-1 -11 -1 -26t1 -34q3 -29 21 -60q16 -28 61 -49q48 -23 146 -23h118q93 0 142 16
q50 19 58 32q15 19 18 37q3 22 3 41v729h507v-287q0 -23 5 -26q3 -5 21 -5h72v-553h-72q-16 0 -32 1q-8 -81 -41 -158q-47 -114 -126 -191q-78 -75 -174 -118q-94 -41 -194 -57q-99 -15 -187 -15h-118z" />
    <glyph glyph-name="uni062F.fina" unicode="&#x62f;" horiz-adv-x="1349" arabic-form="final" 
d="M663 -109q-108 0 -224.5 20t-209 44t-133.5 37l-46 14l13 46l135 485l48 -15q61 -19 190 -49t227 -30h6l-372 547l428 281l104 -156q104 -157 265 -397q9 -11 16 -24q10 -16 34 -51t55 -75q15 -19 27 -33q25 -34 40 -50.5t26.5 -21.5t30.5 -5h41v-556h-97q-143 4 -272 95
q-27 -20 -58 -37q-126 -69 -274 -69z" />
    <glyph glyph-name="uni06C1.fina" unicode="&#x6c1;" horiz-adv-x="1359" arabic-form="final" 
d="M1299 -98q-99 0 -199 27.5t-162 71.5q-116 83 -170 184q-26 48 -55.5 111.5t-48.5 131.5v2q-9 40 -17 67q-11 40 -18 68t-13 55q-29 -11 -41 -23.5t-14.5 -25t-2.5 -23.5q0 -26 10 -68q20 -84 41.5 -163.5t37.5 -132.5l16 -53l-480 -142l-15 52q-16 52 -36 120.5t-36 125
t-20 71.5q-26 102 -26 196q0 230 155 395q129 129 309 169q57 12 118 24t104 21l44 8l273 -203q42 -174 72 -291l30 -116q6 -26 18.5 -49t44.5 -38.5t98 -15.5h58v-556h-75z" />
    <glyph glyph-name="uni0686" unicode="&#x686;" horiz-adv-x="1670" arabic-form="isolated" 
d="M814 -645q-85 0 -166.5 5.5t-156 27t-140.5 66.5q-66 51 -119.5 172t-93.5 271.5t-65 288.5q-14 68 -14 130q0 47 13 118.5t102 151t274 137.5l577 178l-70 18q-70 17 -162.5 41t-170.5 48l-54 -101l-450 117q54 206 202 324l1 1q133 100 290 100q37 0 68 -5
q47 -5 165 -48t352 -148q75 -34 146 -67t118 -55l47 -22l61 -487l-115 -44q-114 -44 -279 -107.5t-329 -126.5t-273 -106l95 -325h238v-553h-91zM1396 -150l-201 -201l-200 201l200 200zM1185 130l-220 -220l-219 220l219 219zM1656 130l-220 -220l-219 220l219 219z" />
    <glyph glyph-name="uni0686.fina" unicode="&#x686;" horiz-adv-x="1899" arabic-form="final" 
d="M1402 -529l-201 -201l-200 201l200 200zM1190 -249l-220 -220l-219 220l219 219zM1662 -249l-220 -220l-219 220l219 219zM1865 458h49v-556h-49q-205 0 -356 96q-91 58 -142 166q-185 -71 -419 -161t-385 -149l95 -325h239v-553h-92q-85 0 -166.5 5.5t-156 27
t-139.5 66.5q-67 51 -120 172t-93 271.5t-66 288.5q-14 68 -14 130q0 47 13.5 118.5t102 151t273.5 137.5l577 178l-70 17q-70 17 -162.5 41.5t-170.5 48.5l-54 -101l-449 117q53 206 202 324v1q134 100 290 100q38 0 69 -5q46 -5 164 -48.5t352 -147.5q76 -35 146.5 -67.5
t117.5 -54.5l47 -22l26 -205q67 -25 155.5 -43.5t185.5 -18.5z" />
    <glyph glyph-name="uni0623" unicode="&#x623;" horiz-adv-x="708" arabic-form="isolated" 
d="M100 -98v1378h508v-1378h-508zM593 1524l-499 -164v160l115 37q-30 31 -47 68.5t-17 81.5q0 68 46.5 129.5t112.5 82.5q34 10 70 10q38 0 70.5 -10t63.5 -23l-32 -133q-60 17 -101 17q-14 0 -25 -3q-23 -7 -41.5 -25.5t-18.5 -42.5q0 -9 3 -19q7 -25 35.5 -41.5
t79.5 -16.5q13 0 29.5 2.5t50.5 11.5t97 30z" />
    <glyph glyph-name="uni0623.fina" unicode="&#x623;" horiz-adv-x="697" arabic-form="final" 
d="M625 -99q-96 0 -169 22.5t-125 55.5t-85 66q-35 33 -68 85t-55.5 125t-22.5 170v231.5t0.5 361.5t0.5 254h506v-799q0 -7 3.5 -10.5t7.5 -4t5 -0.5h91v-557h-89zM600 1505l-499 -164v160l115 37q-30 31 -47 68.5t-17 81.5q0 68 46.5 129.5t112.5 82.5q34 10 70 10
q38 0 70.5 -10t63.5 -23l-32 -133q-60 17 -101 17q-14 0 -25 -3q-23 -7 -41.5 -25.5t-18.5 -42.5q0 -9 3 -19q7 -25 35.5 -41.5t79.5 -16.5q13 0 29.5 2.5t50.5 11.5t97 30z" />
    <glyph glyph-name="uni0625" unicode="&#x625;" horiz-adv-x="708" arabic-form="isolated" 
d="M100 -98v1588h508v-1588h-508zM588 -593l-499 -164v160l115 37q-30 31 -47 68.5t-17 81.5q0 68 46.5 129.5t112.5 82.5q34 10 70 10q38 0 70.5 -10t63.5 -23l-32 -133q-60 17 -101 17q-14 0 -25 -3q-23 -7 -41.5 -25.5t-18.5 -42.5q0 -9 3 -19q7 -25 35.5 -41.5
t79.5 -16.5q13 0 29.5 2.5t50.5 11.5t97 30z" />
    <glyph glyph-name="uni0625.fina" unicode="&#x625;" horiz-adv-x="699" arabic-form="final" 
d="M617 -98q-91 0 -162.5 22t-123.5 55t-85 66q-34 33 -67.5 85t-56 125t-22.5 170v231.5t0.5 361.5t0.5 471h507v-1016q0 -7 3 -10.5t7 -4t5 -0.5h91v-556h-97zM621 -567l-499 -164v160l115 37q-30 31 -47 68.5t-17 81.5q0 68 46.5 129.5t112.5 82.5q34 10 70 10
q38 0 70.5 -10t63.5 -23l-32 -133q-60 17 -101 17q-14 0 -25 -3q-23 -7 -41.5 -25.5t-18.5 -42.5q0 -9 3 -19q7 -25 35.5 -41.5t79.5 -16.5q13 0 29.5 2.5t50.5 11.5t97 30z" />
    <glyph glyph-name="uni0622" unicode="&#x622;" horiz-adv-x="929" arabic-form="isolated" 
d="M276 -98v1378h508v-1378h-508zM-100 1396l10 35q18 68 51 133.5t95 118.5l1 1q106 89 318 89h554v-360h-554q-48 0 -71 -11t-32.5 -29t-15.5 -40l-9 -35z" />
    <glyph glyph-name="uni0622.fina" unicode="&#x622;" horiz-adv-x="849" arabic-form="final" 
d="M771 -99q-96 0 -169 22.5t-125 55.5t-85 66q-35 33 -68 85t-55.5 125t-22.5 170v231.5t0.5 361.5t0.5 254h506v-799q0 -7 3.5 -10.5t7.5 -4t5 -0.5h91v-557h-89zM-100 1395l10 35q18 68 51 133.5t95 118.5l1 1q106 89 318 89h554v-360h-554q-48 0 -71 -11t-32.5 -29
t-15.5 -40l-9 -35z" />
    <glyph glyph-name="uni0671" unicode="&#x671;" horiz-adv-x="708" arabic-form="isolated" 
d="M100 -98v1378h508v-1378h-508zM495 1416h-481l26 119h133l43 66l83 122q36 53 88 84t113 31q47 0 91.5 -24t73.5 -73.5t29 -125.5q0 -74 -31 -117.5t-77 -62.5t-91 -19zM500 1719q-32 0 -65 -28.5t-64 -70.5t-57 -85h181q34 0 56.5 19t22.5 61q0 102 -74 104z" />
    <glyph glyph-name="uni0671.fina" unicode="&#x671;" horiz-adv-x="695" arabic-form="final" 
d="M625 -99q-96 0 -169 22.5t-125 55.5t-85 66q-35 33 -68 85t-55.5 125t-22.5 170v231.5t0.5 361.5t0.5 254h506v-799q0 -7 3.5 -10.5t7.5 -4t5 -0.5h91v-557h-89zM500 1410h-481l26 119h133l43 66l83 122q36 53 88 84t113 31q47 0 91.5 -24t73.5 -73.5t29 -125.5
q0 -74 -31 -117.5t-77 -62.5t-91 -19zM505 1713q-32 0 -65 -28.5t-64 -70.5t-57 -85h181q34 0 56.5 19t22.5 61q0 102 -74 104z" />
    <glyph glyph-name="uni0628" unicode="&#x628;" horiz-adv-x="2163" arabic-form="isolated" 
d="M821 -103q-136 0 -223 2q-89 3 -152 13q-193 31 -295 188l-1 1l-1 2q-81 150 -81 346q0 46 5 96v3q25 156 60 263l18 55l481 -142l-9 -40q-10 -41 -22.5 -94t-21.5 -94t-10 -46h1024q0 3 -8 43.5t-18 92.5t-18 93l-8 41l492 143l2 -11q2 -12 5 -28t5.5 -30t3.5 -19l1 -1
q17 -94 38 -213q16 -80 16 -149q0 -38 -5 -73q-5 -166 -95 -275q-80 -97 -210 -137q-92 -30 -215 -30h-758zM1320 -386l-234 -233l-233 233l233 234z" />
    <glyph glyph-name="uni0628.init" unicode="&#x628;" horiz-adv-x="817" arabic-form="initial" 
d="M-15 -98v556h263q-1 0 -10 48t-21 110t-21 110l-10 48l491 149l11 -57q10 -58 25.5 -140t29.5 -161q16 -82 16 -152q0 -38 -5 -72q-7 -63 -31 -135t-66 -125q-91 -110 -206 -150h-2q-93 -29 -215 -29h-249zM535 -390l-234 -233l-233 233l233 234z" />
    <glyph glyph-name="uni0628.medi" unicode="&#x628;" horiz-adv-x="838" arabic-form="medial" 
d="M765 -98q-152 0 -279 69q-34 -17 -69 -30q-109 -39 -244 -39h-188v556h247v315h507v-315h114v-556h-88zM608 -381l-234 -233l-233 233l233 234z" />
    <glyph glyph-name="uni0628.fina" unicode="&#x628;" horiz-adv-x="2234" arabic-form="final" 
d="M2099 458h155v-556q-180 0 -259 8.5t-126 45.5q-56 -29 -115 -41.5t-119.5 -15t-120.5 -2.5h-703q-140 0 -226 2t-150 13q-193 31 -294 187q-60 96 -75 219q-9 68 -9 131q0 51 6 98q5 40 17 93.5t26 105.5t25 87l10 35l482 -142l-64 -274h1034v324h506v-318zM1332 -389
l-234 -233l-233 233l233 234z" />
    <glyph glyph-name="uni067E" unicode="&#x67e;" horiz-adv-x="2163" arabic-form="isolated" 
d="M822 -103q-136 0 -223 2q-89 3 -152 13q-193 31 -295 188l-1 1l-1 2q-81 150 -81 346q0 46 5 96v3q25 156 60 263l18 55l481 -142l-9 -40q-10 -41 -22.5 -94t-21.5 -94t-10 -46h1024q0 3 -8 43.5t-18 92.5t-18 93l-8 41l492 143l2 -11q2 -12 5 -28t5.5 -30t3.5 -19l1 -1
q17 -94 38 -213q16 -80 16 -149q0 -38 -5 -73q-5 -166 -95 -275q-80 -97 -210 -137q-92 -30 -215 -30h-758zM1283 -682l-201 -201l-200 201l200 200zM1037 -372l-220 -220l-219 220l219 219zM1556 -372l-220 -220l-219 220l219 219z" />
    <glyph glyph-name="uni067E.fina" unicode="&#x67e;" horiz-adv-x="2234" arabic-form="final" 
d="M2099 458h155v-556q-180 0 -259 8.5t-126 45.5q-56 -29 -115 -41.5t-119.5 -15t-120.5 -2.5h-703q-140 0 -226 2t-150 13q-193 31 -294 187q-60 96 -75 219q-9 68 -9 131q0 51 6 98q5 40 17 93.5t26 105.5t25 87l10 35l482 -142l-64 -274h1034v324h506v-318zM1282 -681
l-201 -201l-200 201l200 200zM1036 -371l-220 -220l-219 220l219 219zM1555 -371l-220 -220l-219 220l219 219z" />
    <glyph glyph-name="uni067E.init" unicode="&#x67e;" horiz-adv-x="1007" arabic-form="initial" 
d="M-20 -98v556h458q-1 4 -10 50.5t-21 108t-21 109.5l-9 48l490 149l11 -57q11 -58 26 -140t29 -161q16 -84 16 -155q0 -36 -4 -68q-8 -64 -32 -136t-65 -125q-92 -110 -207 -149l-1 -1q-93 -29 -216 -29h-444zM687 -684l-201 -201l-200 201l200 200zM441 -374l-220 -220
l-219 220l219 219zM960 -374l-220 -220l-219 220l219 219z" />
    <glyph glyph-name="uni067E.medi" unicode="&#x67e;" horiz-adv-x="1038" arabic-form="medial" 
d="M935 -98q-152 0 -279 69q-34 -17 -69 -30q-109 -39 -244 -39h-358v556h417v315h507v-315h144v-556h-118zM706 -689l-201 -201l-200 201l200 200zM460 -379l-220 -220l-219 220l219 219zM979 -379l-220 -220l-219 220l219 219z" />
    <glyph glyph-name="uni062A" unicode="&#x62a;" horiz-adv-x="2163" arabic-form="isolated" 
d="M822 -103q-136 0 -223 2q-89 3 -152 13q-193 31 -295 188l-1 1l-1 2q-81 150 -81 346q0 46 5 96v3q25 156 60 263l18 55l481 -142l-9 -40q-10 -41 -22.5 -94t-21.5 -94t-10 -46h1024q0 3 -8 43.5t-18 92.5t-18 93l-8 41l492 143l2 -11q2 -12 5 -28t5.5 -30t3.5 -19l1 -1
q17 -94 38 -213q16 -80 16 -149q0 -38 -5 -73q-5 -166 -95 -275q-80 -97 -210 -137q-92 -30 -215 -30h-758zM1074 929l-220 -219l-219 219l219 220zM1543 929l-220 -219l-219 219l219 220z" />
    <glyph glyph-name="uni062A.init" unicode="&#x62a;" horiz-adv-x="1007" arabic-form="initial" 
d="M-20 -98v556h458q-1 4 -10 50.5t-21 108t-21 109.5l-9 48l490 149l11 -57q11 -58 26 -140t29 -161q16 -84 16 -155q0 -36 -4 -68q-8 -64 -32 -136t-65 -125q-92 -110 -207 -149l-1 -1q-93 -29 -216 -29h-444zM500 1189l-220 -219l-219 219l219 220zM969 1189l-220 -219
l-219 219l219 220z" />
    <glyph glyph-name="uni062A.medi" unicode="&#x62a;" horiz-adv-x="1024" arabic-form="medial" 
d="M493 1112l-220 -219l-219 219l219 220zM962 1112l-220 -219l-219 219l219 220zM935 -98q-152 0 -279 69q-34 -17 -69 -30q-109 -39 -244 -39h-358v556h417v315h507v-315h144v-556h-118z" />
    <glyph glyph-name="uni062A.fina" unicode="&#x62a;" horiz-adv-x="2234" arabic-form="final" 
d="M2099 458h155v-556q-180 0 -259 8.5t-126 45.5q-56 -29 -115 -41.5t-119.5 -15t-120.5 -2.5h-703q-140 0 -226 2t-150 13q-193 31 -294 187q-60 96 -75 219q-9 68 -9 131q0 51 6 98q5 40 17 93.5t26 105.5t25 87l10 35l482 -142l-64 -274h1034v324h506v-318zM1074 929
l-220 -219l-219 219l219 220zM1543 929l-220 -219l-219 219l219 220z" />
    <glyph glyph-name="uni062B" unicode="&#x62b;" horiz-adv-x="2163" arabic-form="isolated" 
d="M822 -103q-136 0 -223 2q-89 3 -152 13q-193 31 -295 188l-1 1l-1 2q-81 150 -81 346q0 46 5 96v3q25 156 60 263l18 55l481 -142l-9 -40q-10 -41 -22.5 -94t-21.5 -94t-10 -46h1024q0 3 -8 43.5t-18 92.5t-18 93l-8 41l492 143l2 -11q2 -12 5 -28t5.5 -30t3.5 -19l1 -1
q17 -94 38 -213q16 -80 16 -149q0 -38 -5 -73q-5 -166 -95 -275q-80 -97 -210 -137q-92 -30 -215 -30h-758zM1317 1191l-201 -200l-200 200l200 201zM1071 881l-220 -219l-219 219l219 220zM1590 881l-220 -219l-219 219l219 220z" />
    <glyph glyph-name="uni062B.init" unicode="&#x62b;" horiz-adv-x="1007" arabic-form="initial" 
d="M-20 -98v556h458q-1 4 -10 50.5t-21 108t-21 109.5l-9 48l490 149l11 -57q11 -58 26 -140t29 -161q16 -84 16 -155q0 -36 -4 -68q-8 -64 -32 -136t-65 -125q-92 -110 -207 -149l-1 -1q-93 -29 -216 -29h-444zM701 1467l-201 -200l-200 200l200 201zM455 1157l-220 -219
l-219 219l219 220zM974 1157l-220 -219l-219 219l219 220z" />
    <glyph glyph-name="uni062B.medi" unicode="&#x62b;" horiz-adv-x="1038" arabic-form="medial" 
d="M935 -98q-152 0 -279 69q-34 -17 -69 -30q-109 -39 -244 -39h-358v556h417v315h507v-315h144v-556h-118zM710 1405l-201 -200l-200 200l200 201zM464 1095l-220 -219l-219 219l219 220zM983 1095l-220 -219l-219 219l219 220z" />
    <glyph glyph-name="uni062B.fina" unicode="&#x62b;" horiz-adv-x="2234" arabic-form="final" 
d="M2099 458h155v-556q-180 0 -259 8.5t-126 45.5q-56 -29 -115 -41.5t-119.5 -15t-120.5 -2.5h-703q-140 0 -226 2t-150 13q-193 31 -294 187q-60 96 -75 219q-9 68 -9 131q0 51 6 98q5 40 17 93.5t26 105.5t25 87l10 35l482 -142l-64 -274h1034v324h506v-318zM1317 1191
l-201 -200l-200 200l200 201zM1071 881l-220 -219l-219 219l219 220zM1590 881l-220 -219l-219 219l219 220z" />
    <glyph glyph-name="uni0679" unicode="&#x679;" horiz-adv-x="2163" arabic-form="isolated" 
d="M822 -103q-136 0 -223 2q-89 3 -152 13q-193 31 -295 188l-1 1l-1 2q-81 150 -81 346q0 46 5 96v3q25 156 60 263l18 55l481 -142l-9 -40q-10 -41 -22.5 -94t-21.5 -94t-10 -46h1024q0 3 -8 43.5t-18 92.5t-18 93l-8 41l492 143l2 -11q2 -12 5 -28t5.5 -30t3.5 -19l1 -1
q17 -94 38 -213q16 -80 16 -149q0 -38 -5 -73q-5 -166 -95 -275q-80 -97 -210 -137q-92 -30 -215 -30h-758zM1220 653h-423v119h100q3 3 4.5 5t2 3t1.5 2q0 2 2 5t5 7q8 13 26 39v487h117v-331q35 36 77.5 58t92.5 22q47 0 91.5 -22t73.5 -70t29 -125q0 -74 -31 -117.5
t-77 -62.5t-91 -19zM1225 950q-32 0 -64.5 -26.5t-63 -67t-58.5 -84.5h181q34 0 58.5 19t24.5 61q0 51 -21 74.5t-57 23.5z" />
    <glyph glyph-name="uni0679.init" unicode="&#x679;" horiz-adv-x="1007" arabic-form="initial" 
d="M-20 -98v556h458q-1 4 -10 50.5t-21 108t-21 109.5l-9 48l490 149l11 -57q11 -58 26 -140t29 -161q16 -84 16 -155q0 -36 -4 -68q-8 -64 -32 -136t-65 -125q-92 -110 -207 -149l-1 -1q-93 -29 -216 -29h-444zM663 993h-423v119h100q3 3 4.5 5t2 3t1.5 2q0 2 2 5t5 7
q8 13 26 39v487h117v-331q35 36 77.5 58t92.5 22q47 0 91.5 -22t73.5 -70t29 -125q0 -74 -31 -117.5t-77 -62.5t-91 -19zM668 1290q-32 0 -64.5 -26.5t-63 -67t-58.5 -84.5h181q34 0 58.5 19t24.5 61q0 51 -21 74.5t-57 23.5z" />
    <glyph glyph-name="uni0679.medi" unicode="&#x679;" horiz-adv-x="1038" arabic-form="medial" 
d="M935 -98q-152 0 -279 69q-34 -17 -69 -30q-109 -39 -244 -39h-358v556h417v315h507v-315h144v-556h-118zM558 869h-423v119h100q3 3 4.5 5t2 3t1.5 2q0 2 2 5t5 7q8 13 26 39v487h117v-331q35 36 77.5 58t92.5 22q47 0 91.5 -22t73.5 -70t29 -125q0 -74 -31 -117.5
t-77 -62.5t-91 -19zM563 1166q-32 0 -64.5 -26.5t-63 -67t-58.5 -84.5h181q34 0 58.5 19t24.5 61q0 51 -21 74.5t-57 23.5z" />
    <glyph glyph-name="uni0679.fina" unicode="&#x679;" horiz-adv-x="2234" arabic-form="final" 
d="M2099 458h155v-556q-180 0 -259 8.5t-126 45.5q-56 -29 -115 -41.5t-119.5 -15t-120.5 -2.5h-703q-140 0 -226 2t-150 13q-193 31 -294 187q-60 96 -75 219q-9 68 -9 131q0 51 6 98q5 40 17 93.5t26 105.5t25 87l10 35l482 -142l-64 -274h1034v324h506v-318zM1232 663
h-423v119h100q3 3 4.5 5t2 3t1.5 2q0 2 2 5t5 7q8 13 26 39v487h117v-331q35 36 77.5 58t92.5 22q47 0 91.5 -22t73.5 -70t29 -125q0 -74 -31 -117.5t-77 -62.5t-91 -19zM1237 960q-32 0 -64.5 -26.5t-63 -67t-58.5 -84.5h181q34 0 58.5 19t24.5 61q0 51 -21 74.5t-57 23.5z
" />
    <glyph glyph-name="uni0629" unicode="&#x629;" horiz-adv-x="1155" arabic-form="isolated" 
d="M908 888q46 -50 93.5 -113t80.5 -142.5t33 -178.5q0 -100 -28.5 -198.5t-91.5 -178.5t-166 -128.5t-251 -48.5q-132 0 -225 35t-154.5 92.5t-96 126t-48.5 137t-14 124.5q0 83 30.5 162.5t70.5 142.5t71 101.5t34 40.5q-7 8 -17.5 19.5l-21 23t-17.5 20.5l-7 8l377 336
l42 -47q42 -46 101.5 -111t116 -127t88.5 -96zM572 349q49 0 79 30.5t30 85.5q0 18 -17.5 44t-40 50.5t-39.5 41.5l-17 17l-16 -16q-16 -15 -37 -38.5t-37 -50t-16 -48.5q0 -55 31.5 -85.5t79.5 -30.5zM538 1480l-220 -219l-219 219l219 220zM1007 1480l-220 -219l-219 219
l219 220z" />
    <glyph glyph-name="uni0629.fina" unicode="&#x629;" horiz-adv-x="1413" arabic-form="final" 
d="M1427 458v-556h-59q-310 0 -483 163q-83 -39 -160 -50t-149 -11q-176 0 -309 97q-152 114 -199 339q-13 57 -13 130q0 24 3.5 88.5t63.5 175.5q116 204 408 297l-14 60l495 113l11 -47q50 -216 80 -348q7 -33 14 -64q20 -92 37 -163.5t39 -155.5q18 -68 140 -68h95z
M652 456q59 36 59 100q0 2 -1 36.5t-22 105.5q-5 19 -10 37q-80 -35 -116.5 -52.5t-52.5 -33.5q-37 -40 -37 -88q0 -2 0.5 -27.5t30.5 -59.5q18 -19 39 -27t42 -8t39 5.5t29 11.5zM624 1609l-220 -219l-219 219l219 220zM1093 1609l-220 -219l-219 219l219 220z" />
    <glyph glyph-name="uni0686.init" unicode="&#x686;" horiz-adv-x="1632" arabic-form="initial" 
d="M1582 264l-50 -37q-50 -37 -160.5 -90.5t-291 -107t-362 -90.5t-638.5 -37h-95v556h49q144 0 260 2.5t207.5 7t162 10.5t122 12.5t87 13t58 12.5t34.5 10.5t16 7.5l5 2q-11 3 -75 16t-144.5 29t-142.5 27l-62 12l-31 -73l-444 125q67 245 256 356h1q105 58 216 58
q63 0 123 -18q63 -19 194 -61t275 -88.5t248 -81.5l104 -34zM1005 -684l-201 -201l-200 201l200 200zM759 -374l-220 -220l-219 220l219 219zM1278 -374l-220 -220l-219 220l219 219z" />
    <glyph glyph-name="uni0686.medi" unicode="&#x686;" horiz-adv-x="1665" arabic-form="medial" 
d="M1553 458h126v-556h-49q-115 0 -193.5 22t-126 52t-71.5 57t-29 38q-122 -44 -290.5 -82t-343 -62.5t-497.5 -24.5h-94v556h250q141 0 287.5 6t256.5 21t158 33l48 18q-11 3 -75 16t-144.5 28.5t-142.5 27.5l-62 12l-31 -73l-444 125q67 245 256 356h1q105 58 216 58
q63 0 123 -18q63 -19 194 -61t275 -89t248 -81l104 -34zM964 -685l-201 -201l-200 201l200 200zM718 -375l-220 -220l-219 220l219 219zM1237 -375l-220 -220l-219 220l219 219z" />
    <glyph glyph-name="uni062C" unicode="&#x62c;" horiz-adv-x="1610" arabic-form="isolated" 
d="M804 -636q-84 0 -165.5 6t-156 27.5t-140.5 66.5q-66 51 -119.5 172t-93.5 271.5t-65 287.5q-14 70 -14 134q0 45 7 87q19 100 108 179.5t274 137.5l576 178l-69 17q-70 17 -163 41.5t-170 48.5l-54 -101l-450 117q54 206 202 324h1q133 100 289 100q38 0 69 -4
q47 -5 165 -48.5t351 -147.5q76 -35 147 -67.5t118 -54.5l46 -22l62 -488l-114 -43q-115 -44 -280 -107.5t-329 -127t-273 -105.5l95 -325h753v-554h-607zM1310 165l-234 -233l-233 233l233 234z" />
    <glyph glyph-name="uni062C.init" unicode="&#x62c;" horiz-adv-x="1632" arabic-form="initial" 
d="M1582 264l-50 -37q-50 -37 -160.5 -90.5t-291 -107t-362 -90.5t-638.5 -37h-95v556h49q144 0 260 2.5t207.5 7t162 10.5t122 12.5t87 13t58 12.5t34.5 10.5t16 7.5l5 2q-11 3 -75 16t-144.5 29t-142.5 27l-62 12l-31 -73l-444 125q67 245 256 356h1q105 58 216 58
q63 0 123 -18q63 -19 194 -61t275 -88.5t248 -81.5l104 -34zM976 -385l-234 -233l-233 233l233 234z" />
    <glyph glyph-name="uni062C.medi" unicode="&#x62c;" horiz-adv-x="1665" arabic-form="medial" 
d="M1553 458h126v-556h-49q-115 0 -193.5 22t-126 52t-71.5 57t-29 38q-122 -44 -290.5 -82t-343 -62.5t-497.5 -24.5h-94v556h250q141 0 287.5 6t256.5 21t158 33l48 18q-11 3 -75 16t-144.5 28.5t-142.5 27.5l-62 12l-31 -73l-444 125q67 245 256 356h1q105 58 216 58
q63 0 123 -18q63 -19 194 -61t275 -89t248 -81l104 -34zM983 -385l-234 -233l-233 233l233 234z" />
    <glyph glyph-name="uni062C.fina" unicode="&#x62c;" horiz-adv-x="1749" arabic-form="final" 
d="M782 -807q-116 0 -209 13q-102 12 -183 61q-82 51 -144 156l-1 1q-22 38 -60 143q-39 103 -74 221q-37 121 -50 212q-11 65 -11 122q0 146 68 239q90 127 345 212q144 46 319 83q125 27 199 49q-22 5 -85 16.5t-136.5 24.5t-129.5 22t-64 10q-1 -1 -6.5 -11.5t-12.5 -24
t-13 -23.5l-5 -11l-476 120q55 208 201 324l2 1q134 100 289 100q96 0 239 -38q139 -38 289 -90q150 -53 286 -102v-1q70 -26 131 -48l28 -10l64 -492l-2 -1q48 -14 146 -14h39v-555h-118q-206 0 -357 96q-136 87 -181 284l-30 -12q-116 -46 -269 -108t-250 -101
q18 -63 46 -158.5t46 -154.5h786v-555h-656zM1237 -7l-234 -233l-233 233l233 234z" />
    <glyph glyph-name="uni062E" unicode="&#x62e;" horiz-adv-x="1609" arabic-form="isolated" 
d="M805 -646q-85 0 -166 5.5t-156 27t-140 67.5q-200 146 -279 554q-14 68 -14 123v28.5t8 70.5q18 101 107 180.5t274 134.5q170 50 331 100.5t246 78.5q-139 34 -232 58.5t-170 47.5l-54 -101l-450 117q54 207 202 325q134 100 290 100q38 0 69 -5q47 -5 165 -48t351 -148
q76 -34 147 -67t164 -77l61 -487q-248 -91 -420.5 -154.5t-332.5 -123t-243 -92.5q16 -162 117 -162h732v-553h-607zM823 1539l-234 -233l-233 233l233 234z" />
    <glyph glyph-name="uni062E.init" unicode="&#x62e;" horiz-adv-x="1632" arabic-form="initial" 
d="M1582 264l-50 -37q-50 -37 -160.5 -90.5t-291 -107t-362 -90.5t-638.5 -37h-95v556h49q144 0 260 2.5t207.5 7t162 10.5t122 12.5t87 13t58 12.5t34.5 10.5t16 7.5l5 2q-11 3 -75 16t-144.5 29t-142.5 27l-62 12l-31 -73l-444 125q67 245 256 356h1q105 58 216 58
q63 0 123 -18q63 -19 194 -61t275 -88.5t248 -81.5l104 -34zM764 1404l-234 -233l-233 233l233 234z" />
    <glyph glyph-name="uni062E.medi" unicode="&#x62e;" horiz-adv-x="1665" arabic-form="medial" 
d="M1553 458h126v-556h-49q-115 0 -193.5 22t-126 52t-71.5 57t-29 38q-122 -44 -290.5 -82t-343 -62.5t-497.5 -24.5h-94v556h250q141 0 287.5 6t256.5 21t158 33l48 18q-11 3 -75 16t-144.5 28.5t-142.5 27.5l-62 12l-31 -73l-444 125q67 245 256 356h1q105 58 216 58
q63 0 123 -18q63 -19 194 -61t275 -89t248 -81l104 -34zM766 1410l-234 -233l-233 233l233 234z" />
    <glyph glyph-name="uni062E.fina" unicode="&#x62e;" horiz-adv-x="1844" arabic-form="final" 
d="M1746 458h118v-556h-118q-205 0 -356 96q-111 72 -161 217q-190 -69 -380 -140t-285 -109q16 -162 116 -162h732v-553h-607q-84 0 -165.5 6t-156.5 27t-140 67q-200 146 -278 554q-15 70 -15 133q0 46 13.5 118t102 151.5t273.5 134.5q170 50 331 100.5t246 78.5l-69 17
q-70 17 -163 41.5t-170 47.5l-54 -100l-450 116q54 207 202 325h1q133 100 289 100q38 0 69 -4q47 -6 165 -49t351 -148q76 -34 147 -67t118 -55l46 -22l43 -342q4 -1 39.5 -6.5t83 -11t82.5 -5.5zM812 1492l-234 -233l-233 233l233 234z" />
    <glyph glyph-name="uni0630" unicode="&#x630;" horiz-adv-x="1246" arabic-form="isolated" 
d="M689 -104q-111 0 -239 26.5t-227.5 55t-133.5 40.5l-39 13l155 511l63 -22q63 -23 153 -50.5t173 -46.5t133 -19h10q-95 133 -195 264.5t-171 221.5l-72 89l411 281l61 -87q61 -87 148.5 -211.5t172.5 -244.5q84 -120 98 -257q3 -25 3 -54q0 -39 -5 -85q-9 -80 -49 -165
v-1q-65 -123 -183.5 -191t-266.5 -68zM837 1559l-234 -233l-233 233l233 234z" />
    <glyph glyph-name="uni0630.fina" unicode="&#x630;" horiz-adv-x="1349" arabic-form="final" 
d="M663 -109q-108 0 -224.5 20t-209 44t-133.5 37l-46 14l13 46l135 485l48 -15q61 -19 190 -49t227 -30h6l-372 547l428 281l104 -156q104 -157 265 -397q9 -11 16 -24q10 -16 34 -51t55 -75q15 -19 27 -33q25 -34 40 -50.5t26.5 -21.5t30.5 -5h41v-556h-97q-143 4 -272 95
q-27 -20 -58 -37q-126 -69 -274 -69zM853 1558l-234 -233l-233 233l233 234z" />
    <glyph glyph-name="uni0688" unicode="&#x688;" horiz-adv-x="1246" arabic-form="isolated" 
d="M689 -104q-111 0 -239 26.5t-227.5 55t-133.5 40.5l-39 13l155 511l63 -22q63 -23 153 -50.5t173 -46.5t133 -19h10q-95 133 -195 264.5t-171 221.5l-72 89l411 281l61 -87q61 -87 148.5 -211.5t172.5 -244.5q84 -120 98 -257q3 -25 3 -54q0 -39 -5 -85q-9 -80 -49 -165
v-1q-65 -123 -183.5 -191t-266.5 -68zM752 1349h-423v119h100q3 3 4.5 5t2 3t1.5 2q0 2 2 5t5 7q8 13 26 39v487h117v-331q35 36 77.5 58t92.5 22q47 0 91.5 -22t73.5 -70t29 -125q0 -74 -31 -117.5t-77 -62.5t-91 -19zM757 1646q-32 0 -64.5 -26.5t-63 -67t-58.5 -84.5h181
q34 0 58.5 19t24.5 61q0 51 -21 74.5t-57 23.5z" />
    <glyph glyph-name="uni0688.fina" unicode="&#x688;" horiz-adv-x="1349" arabic-form="final" 
d="M663 -109q-108 0 -224.5 20t-209 44t-133.5 37l-46 14l13 46l135 485l48 -15q61 -19 190 -49t227 -30h6l-372 547l428 281l104 -156q104 -157 265 -397q9 -11 16 -24q10 -16 34 -51t55 -75q15 -19 27 -33q25 -34 40 -50.5t26.5 -21.5t30.5 -5h41v-556h-97q-143 4 -272 95
q-27 -20 -58 -37q-126 -69 -274 -69zM743 1355h-423v119h100q3 3 4.5 5t2 3t1.5 2q0 2 2 5t5 7q8 13 26 39v487h117v-331q35 36 77.5 58t92.5 22q47 0 91.5 -22t73.5 -70t29 -125q0 -74 -31 -117.5t-77 -62.5t-91 -19zM748 1652q-32 0 -64.5 -26.5t-63 -67t-58.5 -84.5h181
q34 0 58.5 19t24.5 61q0 51 -21 74.5t-57 23.5z" />
    <glyph glyph-name="uni0632" unicode="&#x632;" horiz-adv-x="956" arabic-form="isolated" 
d="M0 -636v554h146q146 0 200 57q52 65 52 213v586h507v-586q0 -183 -48.5 -343.5t-131.5 -251.5q-103 -118 -256 -175q-142 -54 -323 -54h-146zM888 1132l-234 -233l-233 233l233 234z" />
    <glyph glyph-name="uni0632.fina" unicode="&#x632;" horiz-adv-x="972" arabic-form="final" 
d="M906 774v-286q0 -5 2.5 -12t10 -12.5t22.5 -5.5h66v-556h-76q-26 0 -53 3q-21 -74 -57 -156.5t-93 -153.5l-1 -1q-104 -118 -257 -175q-143 -54 -323 -54h-147v553h147q145 0 200 57q52 65 52 213v586h507zM888 1128l-234 -233l-233 233l233 234z" />
    <glyph glyph-name="uni0691" unicode="&#x691;" horiz-adv-x="956" arabic-form="isolated" 
d="M0 -636v554h146q146 0 200 57q52 65 52 213v586h507v-586q0 -183 -48.5 -343.5t-131.5 -251.5q-103 -118 -256 -175q-142 -54 -323 -54h-146zM705 901h-423v119h100q3 3 4.5 5t2 3t1.5 2q0 2 2 5t5 7q8 13 26 39v487h117v-331q35 36 77.5 58t92.5 22q47 0 91.5 -22
t73.5 -70t29 -125q0 -74 -31 -117.5t-77 -62.5t-91 -19zM710 1198q-32 0 -64.5 -26.5t-63 -67t-58.5 -84.5h181q34 0 58.5 19t24.5 61q0 51 -21 74.5t-57 23.5z" />
    <glyph glyph-name="uni0691.fina" unicode="&#x691;" horiz-adv-x="972" arabic-form="final" 
d="M906 774v-286q0 -5 2.5 -12t10 -12.5t22.5 -5.5h66v-556h-76q-26 0 -53 3q-21 -74 -57 -156.5t-93 -153.5l-1 -1q-104 -118 -257 -175q-143 -54 -323 -54h-147v553h147q145 0 200 57q52 65 52 213v586h507zM700 900h-423v119h100q3 3 4.5 5t2 3t1.5 2q0 2 2 5t5 7
q8 13 26 39v487h117v-331q35 36 77.5 58t92.5 22q47 0 91.5 -22t73.5 -70t29 -125q0 -74 -31 -117.5t-77 -62.5t-91 -19zM705 1197q-32 0 -64.5 -26.5t-63 -67t-58.5 -84.5h181q34 0 58.5 19t24.5 61q0 51 -21 74.5t-57 23.5z" />
    <glyph glyph-name="uni0698" unicode="&#x698;" horiz-adv-x="1030" arabic-form="isolated" 
d="M0 -636v554h146q146 0 200 57q52 65 52 213v586h507v-586q0 -183 -48.5 -343.5t-131.5 -251.5q-103 -118 -256 -175q-142 -54 -323 -54h-146zM758 1422l-201 -200l-200 200l200 201zM512 1112l-220 -219l-219 219l219 220zM1031 1112l-220 -219l-219 219l219 220z" />
    <glyph glyph-name="uni0698.fina" unicode="&#x698;" horiz-adv-x="972" arabic-form="final" 
d="M906 774v-286q0 -5 2.5 -12t10 -12.5t22.5 -5.5h66v-556h-76q-26 0 -53 3q-21 -74 -57 -156.5t-93 -153.5l-1 -1q-104 -118 -257 -175q-143 -54 -323 -54h-147v553h147q145 0 200 57q52 65 52 213v586h507zM703 1426l-201 -200l-200 200l200 201zM457 1116l-220 -219
l-219 219l219 220zM976 1116l-220 -219l-219 219l219 220z" />
    <glyph glyph-name="uni0634" unicode="&#x634;" horiz-adv-x="2835" arabic-form="isolated" 
d="M1631 447q0 -19 10.5 -28.5t26.5 -9.5q13 0 25 8.5t12 29.5v325h481v-325q4 -38 43 -38q18 0 30.5 10.5t12.5 27.5q-24 318 -24 324v1l466 126l10 -49q10 -49 23 -118t23.5 -132t13.5 -94q1 -21 1 -42q0 -117 -36 -226.5t-95 -172.5q-150 -157 -385 -164h-1
q-88 0 -173.5 19.5t-153.5 58.5q-126 -78 -265 -78q-30 0 -58 2q-43 -268 -241 -409q-77 -53 -161 -81t-165.5 -38t-147.5 -10h-118q-354 0 -550 207q-92 102 -132 214.5t-48 210.5q-5 60 -5 104q0 27 2 49q15 237 144 522l20 45l463 -208l-20 -45q-92 -203 -101 -345v-5
q-2 -13 -2 -28q0 -19 3.5 -48.5t31.5 -61.5q53 -57 194 -57h118q95 0 139.5 15t59.5 32q23 26 23 73v735h506v-326zM2153 1388l-201 -200l-200 200l200 201zM1907 1078l-220 -219l-219 219l219 220zM2426 1078l-220 -219l-219 219l219 220z" />
    <glyph glyph-name="uni0634.init" unicode="&#x634;" horiz-adv-x="1879" arabic-form="initial" 
d="M1312 -98q-87 0 -173 19.5t-154 58.5q-126 -78 -265 -78q-99 0 -167 21.5t-118 52.5q-39 -35 -85 -51t-95 -19.5t-272 -3.5v556h158q36 0 44 13t8 37v266h482v-325q0 -19 11 -28.5t26 -9.5q14 0 25.5 8.5t11.5 29.5v325h481v-325q4 -38 43 -38q19 0 31 10.5t13 27.5
q-14 156 -19 241l-6 84l466 126l10 -49q10 -49 23 -118t23.5 -132t13.5 -94q1 -21 1 -42q0 -117 -36 -226.5t-94 -172.5q-151 -157 -386 -164h-1zM1193 1392l-201 -200l-200 200l200 201zM947 1082l-220 -219l-219 219l219 220zM1466 1082l-220 -219l-219 219l219 220z" />
    <glyph glyph-name="uni0634.medi" unicode="&#x634;" horiz-adv-x="1886" arabic-form="medial" 
d="M1803 458h108v-557q-206 0 -286 11.5t-133 62.5q-84 -49 -171 -66q-43 -8 -87 -8h-5q-192 0 -290 75q-50 -32 -112 -53.5t-143 -21.5q-98 0 -165.5 21t-117.5 52q-32 -34 -70.5 -50t-116.5 -19.5t-239 -3.5v557h128q36 0 45.5 12.5t9.5 29.5v273h481v-326q0 -12 8.5 -24
t25.5 -12q13 0 24 6.5t11 29.5v326h480v-326q0 -13 8 -24.5t24 -11.5q13 0 23 10t10 26v326h481v-283q0 -21 18 -26.5t51 -5.5zM1153 1394l-201 -200l-200 200l200 201zM907 1084l-220 -219l-219 219l219 220zM1426 1084l-220 -219l-219 219l219 220z" />
    <glyph glyph-name="uni0634.fina" unicode="&#x634;" horiz-adv-x="2883" arabic-form="final" 
d="M1631 447q0 -12 8 -24t26 -12q13 0 24 6.5t11 29.5v326h480v-326q0 -13 8 -24.5t24 -11.5q13 0 23 10t10 26v326h481v-283q0 -21 18 -26.5t50 -5.5h109v-557q-206 0 -286 11.5t-133 62.5q-84 -49 -171 -66q-43 -8 -87 -8h-5q-192 0 -290 75q-50 -32 -112 -53.5
t-143 -21.5q-30 0 -57 2q-43 -269 -242 -410q-77 -53 -161 -81t-165.5 -38t-147.5 -10h-118q-354 0 -550 207q-92 102 -132 214.5t-48 210.5q-5 60 -5 104q0 27 2 49q15 237 144 522l20 45l463 -208l-20 -45q-92 -203 -101 -345v-5q-1 -13 -1 -28q0 -19 3 -48.5t31 -61.5
q53 -57 194 -57h118q95 0 139.5 15t59.5 32q24 26 24 73q0 8 -1 17v718h506v-326zM2160 1358l-201 -200l-200 200l200 201zM1914 1048l-220 -219l-219 219l219 220zM2433 1048l-220 -219l-219 219l219 220z" />
    <glyph glyph-name="uni0636" unicode="&#x636;" horiz-adv-x="3085" arabic-form="isolated" 
d="M2166 405h283q86 0 119 22t33 75q0 38 -14 54q-14 15 -42 19q-27 3 -67 3q-58 0 -135 -39q-78 -39 -148 -105q-15 -14 -29 -29zM2491 1023q167 0 272 -40.5t163.5 -102.5t83.5 -130.5t30 -128.5q4 -49 4 -82v-22q0 -77 -13 -164q-14 -92 -53 -167q-61 -117 -172 -190h-1
q-63 -41 -127 -62q-62 -20 -117 -27q-52 -6 -87 -6h-760q-31 -188 -144 -318q-99 -113 -249 -167q-140 -51 -325 -51l-239 -1q-192 0 -336 87q-142 85 -233 224q-90 138 -116 271q-18 87 -18 181q0 33 2 68q20 259 167 555l22 43l454 -228l-23 -43q-17 -34 -31 -67
q-14 -35 -27 -68q-57 -154 -57 -263q0 -80 31 -136q18 -28 43 -43q28 -16 59 -22q35 -6 63 -6l239 1q91 0 134.5 13.5t58.5 30.5q9 9 18 40t9 98v673h507v-39v-92t-0.5 -93.5t-0.5 -47.5q43 81 118.5 171t177 169.5t222 130.5t251.5 51zM2733 1329l-234 -233l-233 233
l233 234z" />
    <glyph glyph-name="uni0636.init" unicode="&#x636;" horiz-adv-x="2023" arabic-form="initial" 
d="M1429 1024q167 0 272 -40t163.5 -101.5t83.5 -130t30 -128.5q4 -49 4 -82v-24q0 -72 -13 -163t-53 -168q-62 -118 -172 -190q-63 -41 -126 -61.5t-117 -27t-89 -6.5h-692q-151 0 -278 70q-35 -18 -70 -31q-108 -39 -244 -39h-143v556h205v316h471v-272q17 32 59 93.5
t107.5 134.5t155 139.5t201.5 110.5t245 44zM1387 406q86 0 119 22t33 75q0 38 -14 54t-41.5 19t-67.5 3q-58 0 -135.5 -39t-147.5 -105q-15 -14 -29 -29h283zM1652 1329l-234 -233l-233 233l233 234z" />
    <glyph glyph-name="uni0636.medi" unicode="&#x636;" horiz-adv-x="2085" arabic-form="medial" 
d="M1387 406q86 0 119 22t33 75q0 38 -14 54t-41.5 19t-67.5 3q-57 0 -134.5 -39t-148.5 -105q-15 -14 -29 -29h283zM1980 458h120v-556l-660 1q-15 -1 -28 -1h-691q-152 0 -279 70q-35 -18 -70 -31q-108 -39 -243 -39h-144v556h206v316h470v-272q17 32 59 93.5t108 134.5
t155 139.5t201 110.5t245 44q167 0 272 -40t163.5 -101.5t83.5 -130t31 -127.5q4 -43 4 -73q0 -13 -1 -23v-11q0 -29 -2 -60zM1675 1330l-234 -233l-233 233l233 234z" />
    <glyph glyph-name="uni0636.fina" unicode="&#x636;" horiz-adv-x="3135" arabic-form="final" 
d="M2166 405h283q86 0 119 22t33 75q0 38 -14 54q-14 15 -42 19q-27 3 -67 3q-58 0 -135 -39q-78 -39 -148 -105q-15 -14 -29 -29zM3042 458h108v-556l-633 1q-24 -2 -43 -2h-760q-31 -188 -144 -318q-99 -113 -249 -167q-140 -51 -325 -51l-239 -1q-192 0 -336 87
q-142 85 -233 224q-90 138 -116 271q-18 87 -18 181q0 33 2 68q20 259 167 555l22 43l454 -228l-23 -43q-17 -34 -31 -67q-14 -35 -27 -68q-57 -154 -57 -263q0 -80 31 -136q18 -28 43 -43q28 -16 59 -22q35 -6 63 -6l239 1q91 0 134.5 13.5t58.5 30.5q9 9 18 40t9 98v673
h507v-39v-92t-0.5 -93.5t-0.5 -47.5q43 81 118.5 171t177 169.5t222 130.5t251.5 51q167 0 272 -40.5t163.5 -102.5t83.5 -130.5t30 -127.5q4 -50 4 -83v-22q0 -29 -2 -59zM2751 1331l-234 -233l-233 233l233 234z" />
    <glyph glyph-name="uni0638" unicode="&#x638;" horiz-adv-x="1649" arabic-form="isolated" 
d="M1557 764q42 -102 42 -244q0 -56 -11.5 -148.5t-53.5 -183.5q-60 -119 -173 -191q-63 -41 -125.5 -61.5t-116.5 -27t-89 -6.5h-960v556h182q12 19 26 38v996h507v-522q134 55 263 55h20q41 0 94.5 -2.5t111.5 -17t115 -46.5l1 -1q112 -68 166 -193zM1030 409
q85 0 118.5 21.5t33.5 75.5q0 37 -14.5 52.5t-41.5 19t-67 3.5q-58 0 -135.5 -38.5t-147.5 -104.5l-11 -11q-10 -9 -18 -18h283zM1337 1352l-234 -233l-233 233l233 234z" />
    <glyph glyph-name="uni0638.init" unicode="&#x638;" horiz-adv-x="1544" arabic-form="initial" 
d="M1452 764q42 -102 42 -244q0 -56 -11.5 -148.5t-53.5 -183.5q-60 -119 -173 -191q-63 -41 -125.5 -61.5t-116.5 -27t-89 -6.5h-940v556h162q12 19 26 38v996h507v-522q134 55 263 55h20q41 0 94.5 -2.5t111.5 -17t115 -46.5l1 -1q112 -68 166 -193zM925 409
q85 0 118.5 21.5t33.5 75.5q0 37 -14.5 52.5t-41.5 19t-67 3.5q-58 0 -135.5 -38.5t-147.5 -104.5l-11 -11q-10 -9 -18 -18h283zM1240 1350l-234 -233l-233 233l233 234z" />
    <glyph glyph-name="uni0638.medi" unicode="&#x638;" horiz-adv-x="1608" arabic-form="medial" 
d="M915 409q85 0 118.5 21.5t33.5 75.5q0 37 -14.5 52.5t-41.5 19t-67 3.5q-58 0 -135.5 -38.5t-147.5 -104.5l-11 -11q-10 -9 -18 -18h283zM-15 -98v556h152q12 19 26 38v996h507v-522q134 55 263 55h20q41 0 94.5 -2.5t111.5 -17t115 -46.5l1 -1q112 -68 166 -193l1 -1
q42 -102 42 -244q0 -27 -3 -62h142v-556h-1638zM1236 1352l-234 -233l-233 233l233 234z" />
    <glyph glyph-name="uni0638.fina" unicode="&#x638;" horiz-adv-x="1723" arabic-form="final" 
d="M1030 409q85 0 118.5 21.5t33.5 75.5q0 37 -14.5 52.5t-41.5 19t-67 3.5q-58 0 -135.5 -38.5t-147.5 -104.5l-11 -11q-10 -9 -18 -18h283zM70 -98v556h182q12 19 26 38v996h507v-522q134 55 263 55h20q41 0 94.5 -2.5t111.5 -17t115 -46.5l1 -1q112 -68 166 -193l1 -1
q42 -102 42 -244q0 -27 -3 -62h142v-556h-1668zM1327 1352l-234 -233l-233 233l233 234z" />
    <glyph glyph-name="uni063A" unicode="&#x63a;" horiz-adv-x="1498" arabic-form="isolated" 
d="M780 -636q-149 0 -282.5 52t-235.5 151l-3 2l-2 3q-207 277 -207 510q0 181 68 327q67 142 195 243q36 29 77 53q-36 94 -36 198q0 120 43.5 232.5t128.5 194.5q83 77 191 116t225 39q89 0 175.5 -23.5t156.5 -53.5t112 -53l42 -24l-201 -406l-30 14q-30 13 -75.5 30
t-94.5 30.5t-86 13.5q-46 0 -70 -26q-22 -24 -22 -48v-6q0 -28 24.5 -55.5t104 -45.5t253.5 -18h178v-554h-85q-86 0 -199 0.5t-210 0.5h-120q-67 0 -111.5 -11t-78.5 -45q-21 -23 -31 -50t-13 -48.5t-3 -25.5q2 -73 42.5 -108.5t93.5 -45.5t86 -10h565v-553h-565z
M1167 1785l-234 -233l-233 233l233 234z" />
    <glyph glyph-name="uni063A.init" unicode="&#x63a;" horiz-adv-x="1264" arabic-form="initial" 
d="M879 458q11 -1 35 -1h47.5h28.5h185v-555h-1190v556h142q-9 48 -9 98q0 107 38 207.5t108 179.5q38 43 98 85t145.5 71t200.5 29q82 0 168 -23.5t157.5 -53.5t116.5 -53l44 -24l-201 -406l-29 14q-30 13 -74 30t-91.5 30.5t-82.5 13.5q-52 0 -78 -28q-22 -23 -22 -48
q0 -6 1 -12q19 -67 99 -88t163 -22zM928 1424l-234 -233l-233 233l233 234z" />
    <glyph glyph-name="uni063A.medi" unicode="&#x63a;" horiz-adv-x="1408" arabic-form="medial" 
d="M1250 457h173v-555h-478q-64 0 -126 21q-50 16 -104 52q-71 -36 -175 -53q-123 -20 -254 -20h-301v555h189q-4 4 -7 8l-22.5 28.5t-9.5 13.5l-52 66v85q0 86 19 152q19 65 47 113q27 46 56 76q31 36 80 69q51 34 121 56q72 23 166 23h292q133 0 251 -71l1 -1
q116 -74 173 -192v-2q40 -92 40 -181q0 -125 -79 -243zM861 659q36 41 52 65h-384q7 -12 35 -42t62 -65q35 -35 62 -61q28 -27 34 -32q24 18 63 57q40 38 76 78zM955 1442l-234 -233l-233 233l233 234z" />
    <glyph glyph-name="uni063A.fina" unicode="&#x63a;" horiz-adv-x="1509" arabic-form="final" 
d="M610 -23q-29 -24 -40.5 -46.5t-11.5 -53.5q0 -65 45.5 -113t108.5 -48h641l3 -551h-642q-135 0 -260 54q-118 52 -209 145q-92 93 -140 211l-1 1q-54 137 -54 301q0 224 146 391q81 86 147 125q-67 57 -161 157v97q0 58 17.5 138.5t70.5 160.5q65 96 167 146.5t229 50.5
h308q127 0 241 -66v-1q109 -68 167 -175q50 -102 50 -201q0 -121 -75 -238q-1 -2 -3 -4h171v-556h-413q-221 0 -364 159q-78 -37 -138 -84zM1012 723h-384q7 -12 35 -42t62.5 -64.5t62 -61t33.5 -31.5q24 18 63.5 56.5t75.5 78.5t52 64zM1041 1429l-234 -233l-233 233
l233 234z" />
    <glyph glyph-name="uni06A9.init" unicode="&#x6a9;" horiz-adv-x="1239" arabic-form="initial" 
d="M-15 -98v556h558q-63 65 -133 129q-112 101 -200 172q-54 43 -92 72l-39 29l48 404l901 410l211 -462l-537 -244q1 -2 3 -3q66 -65 147 -150q14 -15 28 -29l1 -1q56 -58 98 -108q44 -52 71 -110h1q36 -78 45 -144q7 -49 7 -94q0 -14 -1 -29q-3 -61 -31 -134
q-23 -59 -83 -120q-60 -62 -173 -103l-1 -1q-119 -40 -298 -40h-531z" />
    <glyph glyph-name="uni06A9.medi" unicode="&#x6a9;" horiz-adv-x="1308" arabic-form="medial" 
d="M1274 -98q-118 0 -219.5 16.5t-194.5 67.5l-1 1q-46 28 -85 60q-50 -44 -111 -76q-134 -69 -291 -69h-387v556h357q68 0 128 11q-37 49 -85 113l-255 307l82 357l884 434l220 -455l-577 -287q43 -56 108 -140.5t125 -164.5q96 -132 141 -156q23 -13 58 -16t103 -3h49
v-556h-49z" />
    <glyph glyph-name="uni0641" unicode="&#x641;" horiz-adv-x="2174" arabic-form="isolated" 
d="M1682 446v96q0 20 -10 45.5t-35.5 45t-72.5 19.5q-16 0 -43.5 -9t-49.5 -33t-22 -68q0 -59 22.5 -77t68.5 -18q17 0 62 -1h80zM941 -98h-119q-136 0 -223 2q-89 3 -152 13q-193 31 -295 188l-1 1l-1 2q-81 150 -81 346q0 46 5 96v3q25 156 60 263l18 55l481 -142v-1
q-2 -7 -9 -39q-10 -41 -22.5 -94t-21.5 -92.5t-10 -44.5h464q-1 29 -1 56q0 176 51 296q52 120 135 192q81 70 174 100q90 29 168 29q235 0 405 -177v-1h1q157 -180 157 -439v-71q0 -155 -77 -278q-78 -123 -224 -193q-145 -69 -347 -69zM1802 1435l-234 -233l-233 233
l233 234z" />
    <glyph glyph-name="uni0641.init" unicode="&#x641;" horiz-adv-x="1218" arabic-form="initial" 
d="M1020 953q157 -180 157 -439v-71q0 -155 -77 -278q-78 -123 -224 -193q-145 -69 -348 -69h-534v555h93q-2 29 -2 56q0 176 52 296t134 192q82 70 174 100q91 29 169 29q234 0 404 -177l1 -1h1zM735 446v96q0 20 -10 45.5t-35.5 45t-72.5 19.5q-16 0 -43.5 -9t-49.5 -33
t-22 -68q0 -59 22.5 -77t67.5 -18q18 0 63 -1h80zM850 1436l-234 -233l-233 233l233 234z" />
    <glyph glyph-name="uni0641.medi" unicode="&#x641;" horiz-adv-x="1334" arabic-form="medial" 
d="M1236 458h113v-556h-265q-113 0 -207 11t-207 38q-175 -49 -417 -49h-268v556h115q-5 39 -5 82q0 240 161 417q168 178 413 178q241 0 412 -178q161 -177 161 -417q0 -43 -6 -82zM669 418q6 1 27 8t46 22.5t43.5 41t18.5 62.5q0 12 -5 36t-19.5 49.5t-41 43.5t-69.5 18
q-44 0 -70.5 -18t-40.5 -43.5t-19 -49.5t-5 -36q0 -38 18.5 -63.5t43 -40.5t45.5 -22t28 -8zM908 1432l-234 -233l-233 233l233 234z" />
    <glyph glyph-name="uni0641.fina" unicode="&#x641;" horiz-adv-x="2263" arabic-form="final" 
d="M1598 418q6 1 27 8t46 22.5t43.5 41t18.5 62.5q0 12 -5 36t-19.5 49.5t-41 43.5t-69.5 18q-44 0 -70.5 -18t-40.5 -43.5t-19 -49.5t-5 -36q0 -38 18.5 -63.5t43 -40.5t45.5 -22t28 -8zM822 -98q-136 0 -223 2q-89 3 -152 13q-193 31 -295 188l-1 1l-1 2q-81 150 -81 346
q0 46 5 96v3q25 156 60 263l18 55l481 -142v-1q-2 -7 -9 -39q-10 -41 -22.5 -94t-21.5 -92.5t-10 -44.5h459q-5 39 -5 82q0 240 160 417q169 178 414 178q240 0 412 -178q161 -177 161 -417q0 -43 -6 -82h113v-556h-265q-113 0 -207 11t-207 38q-175 -49 -417 -49h-360z
M1820 1427l-234 -233l-233 233l233 234z" />
    <glyph glyph-name="veh.isol" unicode="&#x6a4;" horiz-adv-x="2174" arabic-form="isolated" 
d="M1682 446v96q0 20 -10 45.5t-35.5 45t-72.5 19.5q-16 0 -43.5 -9t-49.5 -33t-22 -68q0 -59 22.5 -77t68.5 -18q17 0 62 -1h80zM941 -98h-119q-136 0 -223 2q-89 3 -152 13q-193 31 -295 188l-1 1l-1 2q-81 150 -81 346q0 46 5 96v3q25 156 60 263l18 55l481 -142v-1
q-2 -7 -9 -39q-10 -41 -22.5 -94t-21.5 -92.5t-10 -44.5h464q-1 29 -1 56q0 176 51 296q52 120 135 192q81 70 174 100q90 29 168 29q235 0 405 -177v-1h1q157 -180 157 -439v-71q0 -155 -77 -278q-78 -123 -224 -193q-145 -69 -347 -69zM1755 1717l-201 -200l-200 200
l200 201zM1509 1407l-220 -219l-219 219l219 220zM2028 1407l-220 -219l-219 219l219 220z" />
    <glyph glyph-name="veh.init" unicode="&#x6a4;" horiz-adv-x="1218" arabic-form="initial" 
d="M1011 953q157 -180 157 -439v-71q0 -155 -77 -278q-78 -123 -224 -193q-145 -69 -348 -69h-534v555h93q-2 29 -2 56q0 176 52 296t134 192q82 70 174 100q91 29 169 29q234 0 404 -177l1 -1h1zM726 446v96q0 20 -10 45.5t-35.5 45t-72.5 19.5q-16 0 -43.5 -9t-49.5 -33
t-22 -68q0 -59 22.5 -77t67.5 -18q18 0 63 -1h80zM804 1717l-201 -200l-200 200l200 201zM558 1407l-220 -219l-219 219l219 220zM1077 1407l-220 -219l-219 219l219 220z" />
    <glyph glyph-name="veh.medi" unicode="&#x6a4;" horiz-adv-x="1334" arabic-form="medial" 
d="M1236 458h113v-556h-265q-113 0 -207 11t-207 38q-175 -49 -417 -49h-268v556h115q-5 39 -5 82q0 240 161 417q168 178 413 178q241 0 412 -178q161 -177 161 -417q0 -43 -6 -82zM669 418q6 1 27 8t46 22.5t43.5 41t18.5 62.5q0 12 -5 36t-19.5 49.5t-41 43.5t-69.5 18
q-44 0 -70.5 -18t-40.5 -43.5t-19 -49.5t-5 -36q0 -38 18.5 -63.5t43 -40.5t45.5 -22t28 -8zM837 1719l-201 -200l-200 200l200 201zM591 1409l-220 -219l-219 219l219 220zM1110 1409l-220 -219l-219 219l219 220z" />
    <glyph glyph-name="veh.fina" unicode="&#x6a4;" horiz-adv-x="2263" arabic-form="final" 
d="M1598 418q6 1 27 8t46 22.5t43.5 41t18.5 62.5q0 12 -5 36t-19.5 49.5t-41 43.5t-69.5 18q-44 0 -70.5 -18t-40.5 -43.5t-19 -49.5t-5 -36q0 -38 18.5 -63.5t43 -40.5t45.5 -22t28 -8zM822 -98q-136 0 -223 2q-89 3 -152 13q-193 31 -295 188l-1 1l-1 2q-81 150 -81 346
q0 46 5 96v3q25 156 60 263l18 55l481 -142v-1q-2 -7 -9 -39q-10 -41 -22.5 -94t-21.5 -92.5t-10 -44.5h459q-5 39 -5 82q0 240 160 417q169 178 414 178q240 0 412 -178q161 -177 161 -417q0 -43 -6 -82h113v-556h-265q-113 0 -207 11t-207 38q-175 -49 -417 -49h-360z
M1815 1713l-201 -200l-200 200l200 201zM1569 1403l-220 -219l-219 219l219 220zM2088 1403l-220 -219l-219 219l219 220z" />
    <glyph glyph-name="uni0642.init" unicode="&#x642;" horiz-adv-x="1218" arabic-form="initial" 
d="M1011 953q157 -180 157 -439v-71q0 -155 -77 -278q-78 -123 -224 -193q-145 -69 -348 -69h-534v555h93q-2 29 -2 56q0 176 52 296t134 192q82 70 174 100q91 29 169 29q234 0 404 -177l1 -1h1zM726 446v96q0 20 -10 45.5t-35.5 45t-72.5 19.5q-16 0 -43.5 -9t-49.5 -33
t-22 -68q0 -59 22.5 -77t67.5 -18q18 0 63 -1h80zM595 1413l-220 -219l-219 219l219 220zM1064 1413l-220 -219l-219 219l219 220z" />
    <glyph glyph-name="uni0642.medi" unicode="&#x642;" horiz-adv-x="1334" arabic-form="medial" 
d="M1236 458h113v-556h-265q-113 0 -207 11t-207 38q-175 -49 -417 -49h-268v556h115q-5 39 -5 82q0 240 161 417q168 178 413 178q241 0 412 -178q161 -177 161 -417q0 -43 -6 -82zM669 418q6 1 27 8t46 22.5t43.5 41t18.5 62.5q0 12 -5 36t-19.5 49.5t-41 43.5t-69.5 18
q-44 0 -70.5 -18t-40.5 -43.5t-19 -49.5t-5 -36q0 -38 18.5 -63.5t43 -40.5t45.5 -22t28 -8zM653 1412l-220 -219l-219 219l219 220zM1122 1412l-220 -219l-219 219l219 220z" />
    <glyph glyph-name="uni0642" unicode="&#x642;" horiz-adv-x="1843" arabic-form="isolated" 
d="M1206 405h155v96q0 47 -34 79q-34 31 -84 31q-49 0 -82 -32t-33 -78q0 -25 6 -47q5 -22 22 -35q16 -14 50 -14zM783 -636q-211 0 -373 77.5t-257 223.5l-1 1q-80 135 -96 253q-10 73 -10 142q0 43 4 85q14 235 144 523l20 44l462 -208l-20 -44q-92 -207 -101 -346
q-1 -13 -1 -24q0 -69 25 -107q51 -69 204 -69h15v1h73q73 1 169 1h166h161q2 0 5.5 2.5t3.5 7.5t-3.5 7.5t-5.5 2.5q-85 0 -174.5 8t-173 33.5t-150 79t-106 143t-39.5 225.5q0 175 50 293.5t128 190t168 102.5t170 31q235 0 405 -177v-1h1q157 -179 157 -439v-374
q-1 -148 -44 -257q-42 -108 -107 -183q-63 -73 -128 -123l-2 -2q-40 -27 -107 -57q-68 -30 -191 -49q-105 -17 -267 -17h-174zM1214 1314l-220 -219l-219 219l219 220zM1683 1314l-220 -219l-219 219l219 220z" />
    <glyph glyph-name="uni0642.fina" unicode="&#x642;" horiz-adv-x="1885" arabic-form="final" 
d="M1206 405h155v96q0 47 -34 79q-34 31 -84 31q-49 0 -82 -32t-33 -78q0 -25 6 -47q5 -22 22 -35q16 -14 50 -14zM1802 458h93v-556h-106q-10 -58 -30 -107q-42 -108 -107 -183q-63 -73 -128 -123l-2 -2q-40 -27 -107 -57q-68 -30 -191 -49q-105 -17 -267 -17h-174
q-211 0 -373 77.5t-257 223.5l-1 1q-80 135 -96 253q-10 73 -10 142q0 43 4 85q14 235 144 523l20 44l462 -208l-20 -44q-92 -207 -101 -346q-1 -13 -1 -24q0 -69 25 -107q51 -69 204 -69h15v1h73q73 1 169 1h166h161q2 0 5.5 2.5t3.5 7.5t-3.5 7.5t-5.5 2.5q-85 0 -174.5 8
t-173 33.5t-150 79t-106 143t-39.5 225.5q0 175 50 293.5t128 190t168 102.5t170 31q235 0 405 -177v-1h1q147 -168 156 -407zM1213 1310l-220 -219l-219 219l219 220zM1682 1310l-220 -219l-219 219l219 220z" />
    <glyph glyph-name="uni0646.init" unicode="&#x646;" horiz-adv-x="817" arabic-form="initial" 
d="M-15 -98v556h263q-1 0 -10 48t-21 110t-21 110l-10 48l491 149l11 -57q10 -58 25.5 -140t29.5 -161q16 -82 16 -152q0 -38 -5 -72q-7 -63 -31 -135t-66 -125q-91 -110 -206 -150h-2q-93 -29 -215 -29h-249zM594 1223l-234 -233l-233 233l233 234z" />
    <glyph glyph-name="uni0646.medi" unicode="&#x646;" horiz-adv-x="838" arabic-form="medial" 
d="M765 -98q-152 0 -279 69q-34 -17 -69 -30q-109 -39 -244 -39h-188v556h247v315h507v-315h114v-556h-88zM638 1155l-234 -233l-233 233l233 234z" />
    <glyph glyph-name="uni0646" unicode="&#x646;" horiz-adv-x="1662" arabic-form="isolated" 
d="M776 -636q-354 0 -550 207q-92 102 -132 214.5t-48 209.5q-5 60 -5 105q0 27 2 49q15 237 144 522l20 45l463 -208l-20 -45q-92 -203 -101 -345v-5q-1 -13 -1 -28q0 -19 3 -48.5t31 -61.5q53 -57 194 -57h118q95 0 139.5 15t59.5 32q24 26 24 73q0 8 -1 17v718h506v-710
q0 -390 -254 -570q-77 -53 -161 -81t-165.5 -38t-147.5 -10h-118zM1083 813l-234 -233l-233 233l233 234z" />
    <glyph glyph-name="uni0646.fina" unicode="&#x646;" horiz-adv-x="1697" arabic-form="final" 
d="M778 -636q-178 0 -309 48q-130 48 -217 131q-86 81 -137 182q-50 100 -65 221q-8 75 -8 139q0 34 2 64q16 234 144 522l20 45l463 -208l-20 -45q-91 -202 -100 -344v-6l-1 -3q-1 -11 -1 -26t1 -34q3 -29 21 -60q16 -28 61 -49q48 -23 146 -23h118q93 0 142 16
q50 19 58 32q15 19 18 37q3 22 3 41v729h507v-287q0 -23 5 -26q3 -5 21 -5h72v-553h-72q-16 0 -32 1q-8 -81 -41 -158q-47 -114 -126 -191q-78 -75 -174 -118q-94 -41 -194 -57q-99 -15 -187 -15h-118zM1082 819l-234 -233l-233 233l233 234z" />
    <glyph glyph-name="uni06C0" unicode="&#x6c0;" horiz-adv-x="1155" arabic-form="isolated" 
d="M908 888q46 -50 93.5 -113t80.5 -142.5t33 -178.5q0 -100 -28.5 -198.5t-91.5 -178.5t-166 -128.5t-251 -48.5q-132 0 -225 35t-154.5 92.5t-96 126t-48.5 137t-14 124.5q0 83 30.5 162.5t70.5 142.5t71 101.5t34 40.5q-7 8 -17.5 19.5l-21 23t-17.5 20.5l-7 8l377 336
l42 -47q42 -46 101.5 -111t116 -127t88.5 -96zM572 349q49 0 79 30.5t30 85.5q0 18 -17.5 44t-40 50.5t-39.5 41.5l-17 17l-16 -16q-16 -15 -37 -38.5t-37 -50t-16 -48.5q0 -55 31.5 -85.5t79.5 -30.5zM620 1891q47 0 96 -13l-36 -138q-29 8 -59 8q-21 0 -40.5 -5.5
t-36.5 -19.5q-27 -23 -37 -65q94 -16 127 -24q36 -8 53 -21q37 -26 37 -70q0 -19 -5 -57.5t-32 -80.5q-64 -91 -217 -91h-109v143h109q22 0 53 5.5t46 24.5q5 7 6 13q-44 9 -119 21l-36 6l-55 9l-5 56q-1 14 -1 28q0 128 93 213q50 42 117 54q26 4 51 4z" />
    <glyph glyph-name="uni06C0.fina" unicode="&#x6c0;" horiz-adv-x="1413" arabic-form="final" 
d="M1427 458v-556h-59q-310 0 -483 163q-83 -39 -160 -50t-149 -11q-176 0 -309 97q-152 114 -199 339q-13 57 -13 130q0 24 3.5 88.5t63.5 175.5q116 204 408 297l-14 60l495 113l11 -47q50 -216 80 -348q7 -33 14 -64q20 -92 37 -163.5t39 -155.5q18 -68 140 -68h95z
M652 456q59 36 59 100q0 2 -1 36.5t-22 105.5q-5 19 -10 37q-80 -35 -116.5 -52.5t-52.5 -33.5q-37 -40 -37 -88q0 -2 0.5 -27.5t30.5 -59.5q18 -19 39 -27t42 -8t39 5.5t29 11.5zM895 1935q47 0 96 -13l-36 -138q-29 8 -59 8q-21 0 -40.5 -5.5t-36.5 -19.5q-27 -23 -37 -65
q94 -16 127 -24q36 -8 53 -21q37 -26 37 -70q0 -19 -5 -57.5t-32 -80.5q-64 -91 -217 -91h-109v143h109q22 0 53 5.5t46 24.5q5 7 6 13q-44 9 -119 21l-36 6l-55 9l-5 56q-1 14 -1 28q0 128 93 213q50 42 117 54q26 4 51 4z" />
    <glyph glyph-name="uni0624" unicode="&#x624;" horiz-adv-x="1209" arabic-form="isolated" 
d="M560 405h155v96q0 47 -34 79q-34 31 -84 31q-49 0 -82 -32t-33 -78q0 -25 5 -47q6 -22 22 -35q17 -14 51 -14zM594 1043q234 0 404 -177v-1h1q157 -179 157 -439v-374q-1 -148 -44 -257q-42 -108 -107 -183q-63 -73 -128 -123l-2 -2q-39 -27 -106 -57q-68 -30 -191 -49
q-105 -17 -268 -17h-159v552h73q73 1 169 1h166h161q2 0 6 2.5t4 7.5t-4 7.5t-6 2.5q-84 0 -174 8t-173.5 33.5t-149.5 79t-105.5 143t-39.5 225.5q0 175 49.5 293.5t127.5 190t168 102.5t171 31zM848 1268l-499 -164v160l115 37q-30 31 -47 68.5t-17 81.5q0 68 46.5 129.5
t112.5 82.5q34 10 70 10q38 0 70.5 -10t63.5 -23l-32 -133q-60 17 -101 17q-14 0 -25 -3q-23 -7 -41.5 -25.5t-18.5 -42.5q0 -9 3 -19q7 -25 35.5 -41.5t79.5 -16.5q13 0 29.5 2.5t50.5 11.5t97 30z" />
    <glyph glyph-name="uni0624.fina" unicode="&#x624;" horiz-adv-x="1227" arabic-form="final" 
d="M560 405h155v96q0 47 -34 79q-34 31 -84 31q-49 0 -82 -32t-33 -78q0 -25 5 -47q6 -22 22 -35q17 -14 51 -14zM1155 458h87v-556h-100q-10 -58 -30 -107q-42 -108 -107 -183q-63 -73 -128 -123l-2 -2q-39 -27 -106 -57q-68 -30 -191 -49q-105 -17 -268 -17h-159v552h1
q7 0 72 1h496q2 0 6 2.5t4 7.5t-4 7.5t-6 2.5q-84 0 -174 8t-173.5 33.5t-149.5 79t-105.5 143t-39.5 225.5q0 175 49.5 293.5t127.5 190t168 102.5t171 31q234 0 404 -177v-1h1q147 -168 156 -407zM841 1265l-499 -164v160l115 37q-30 31 -47 68.5t-17 81.5
q0 68 46.5 129.5t112.5 82.5q34 10 70 10q38 0 70.5 -10t63.5 -23l-32 -133q-60 17 -101 17q-14 0 -25 -3q-23 -7 -41.5 -25.5t-18.5 -42.5q0 -9 3 -19q7 -25 35.5 -41.5t79.5 -16.5q13 0 29.5 2.5t50.5 11.5t97 30z" />
    <glyph glyph-name="uni0649.init" unicode="&#x649;" horiz-adv-x="817" arabic-form="initial" 
d="M-15 -98v556h263q-1 0 -10 48t-21 110t-21 110l-10 48l491 149l11 -57q10 -58 25.5 -140t29.5 -161q16 -82 16 -152q0 -38 -5 -72q-7 -63 -31 -135t-66 -125q-91 -110 -206 -150h-2q-93 -29 -215 -29h-249z" />
    <glyph glyph-name="uni0649.medi" unicode="&#x649;" horiz-adv-x="838" arabic-form="medial" 
d="M765 -98q-152 0 -279 69q-34 -17 -69 -30q-109 -39 -244 -39h-188v556h247v315h507v-315h114v-556h-88z" />
    <glyph glyph-name="uni064A.init" unicode="&#x64a;" horiz-adv-x="1007" arabic-form="initial" 
d="M-20 -98v556h458q-1 4 -10 50.5t-21 108t-21 109.5l-9 48l490 149l11 -57q11 -58 26 -140t29 -161q16 -84 16 -155q0 -36 -4 -68q-8 -64 -32 -136t-65 -125q-92 -110 -207 -149l-1 -1q-93 -29 -216 -29h-444zM257 -159l220 -219l-220 -220l-219 220zM726 -159l220 -219
l-220 -220l-219 220z" />
    <glyph glyph-name="uni064A.medi" unicode="&#x64a;" horiz-adv-x="1038" arabic-form="medial" 
d="M935 -98q-152 0 -279 69q-34 -17 -69 -30q-109 -39 -244 -39h-358v556h417v315h507v-315h144v-556h-118zM265 -153l220 -219l-220 -220l-219 220zM734 -153l220 -219l-220 -220l-219 220z" />
    <glyph glyph-name="uni064A" unicode="&#x64a;" horiz-adv-x="1831" arabic-form="isolated" 
d="M750 -636q-139 0 -241.5 37t-174 91.5t-116.5 110.5q-80 98 -124 223.5t-44 256.5q0 138 24 253t61.5 213.5t81.5 185.5l22 43l454 -222l-21 -44q-115 -229 -115 -389q0 -86 24 -131t68 -61t104 -16h396q47 0 77 6.5t47 15.5q-69 18 -184 44q-135 31 -241 58l-26 7l-8 26
q-4 7 -20 79t-22 181q-1 23 -1 46q0 87 20 180q6 34 46 125t136 194q211 208 532 208q60 0 118.5 -11t110.5 -24l47 -13l-130 -494l-49 17q-69 24 -127 24q-161 0 -211 -160q64 -18 118 -32q117 -30 187 -52q189 -62 189 -284v-2q-3 -394 -239 -569q-69 -50 -143 -76.5
t-144.5 -35.5t-128.5 -9h-353zM667 -706l220 -219l-220 -220l-219 220zM1136 -706l220 -219l-220 -220l-219 220z" />
    <glyph glyph-name="uni064A.fina" unicode="&#x64a;" horiz-adv-x="1939" arabic-form="final" 
d="M786 -637q-353 0 -561 248q-175 225 -175 530q0 134 43.5 293t118.5 298l22 41l453 -219l-22 -44q-105 -214 -105 -369q1 -228 226 -228h266q23 0 72 0.5t95 1.5t64 2q-88 28 -168 40.5t-128 16.5l-48 4v480h1015v-556h-178v-10q0 -174 -84 -293q-72 -101 -201 -160
q-168 -76 -443 -76h-262zM698 -711l220 -219l-220 -220l-219 220zM1167 -711l220 -219l-220 -220l-219 220z" />
    <glyph glyph-name="uni06CC" unicode="&#x6cc;" horiz-adv-x="1831" arabic-form="isolated" 
d="M750 -636q-139 0 -241.5 37t-174 91.5t-116.5 110.5q-80 98 -124 223.5t-44 256.5q0 138 24 253t61.5 213.5t81.5 185.5l22 43l454 -222l-21 -44q-115 -229 -115 -389q0 -86 24 -131t68 -61t104 -16h396q47 0 77 6.5t47 15.5q-69 18 -184 44q-135 31 -241 58l-26 7l-8 26
q-4 7 -20 79t-22 181q-1 23 -1 46q0 87 20 180q6 34 46 125t136 194q211 208 532 208q60 0 118.5 -11t110.5 -24l47 -13l-130 -494l-49 17q-69 24 -127 24q-161 0 -211 -160q64 -18 118 -32q117 -30 187 -52q189 -62 189 -284v-2q-3 -394 -239 -569q-69 -50 -143 -76.5
t-144.5 -35.5t-128.5 -9h-353z" />
    <glyph glyph-name="uni06CC.init" unicode="&#x6cc;" horiz-adv-x="1007" arabic-form="initial" 
d="M-20 -98v556h458q-1 4 -10 50.5t-21 108t-21 109.5l-9 48l490 149l11 -57q11 -58 26 -140t29 -161q16 -84 16 -155q0 -36 -4 -68q-8 -64 -32 -136t-65 -125q-92 -110 -207 -149l-1 -1q-93 -29 -216 -29h-444zM246 -162l220 -219l-220 -220l-219 220zM715 -162l220 -219
l-220 -220l-219 220z" />
    <glyph glyph-name="uni06CC.medi" unicode="&#x6cc;" horiz-adv-x="1038" arabic-form="medial" 
d="M935 -98q-152 0 -279 69q-34 -17 -69 -30q-109 -39 -244 -39h-358v556h417v315h507v-315h144v-556h-118zM253 -158l220 -219l-220 -220l-219 220zM722 -158l220 -219l-220 -220l-219 220z" />
    <glyph glyph-name="uni06CC.fina" unicode="&#x6cc;" horiz-adv-x="1939" arabic-form="final" 
d="M786 -637q-353 0 -561 248q-175 225 -175 530q0 134 43.5 293t118.5 298l22 41l453 -219l-22 -44q-105 -214 -105 -369q1 -228 226 -228h266q23 0 72 0.5t95 1.5t64 2q-88 28 -168 40.5t-128 16.5l-48 4v480h1015v-556h-178v-10q0 -174 -84 -293q-72 -101 -201 -160
q-168 -76 -443 -76h-262z" />
    <glyph glyph-name="uni06D3" unicode="&#x6d3;" horiz-adv-x="1724" arabic-form="isolated" 
d="M600 -656q-226 0 -391 153q-159 155 -159 452q0 98 20.5 168.5t57 124.5t85.5 100q166 151 387 151h342v-544h-407q-18 0 -23 -12t-5 -20t3 -16q8 -16 25 -16h1149v-541h-1084zM676 686l-499 -164v160l115 37q-30 31 -47 68.5t-17 81.5q0 68 46.5 129.5t112.5 82.5
q34 10 70 10q38 0 70.5 -10t63.5 -23l-32 -133q-60 17 -101 17q-14 0 -25 -3q-23 -7 -41.5 -25.5t-18.5 -42.5q0 -9 3 -19q7 -25 35.5 -41.5t79.5 -16.5q13 0 29.5 2.5t50.5 11.5t97 30z" />
    <glyph glyph-name="uni06D3.fina" unicode="&#x6d3;" horiz-adv-x="1320" arabic-form="final" 
d="M622 -702q-225 0 -391 152q-159 155 -159 452q0 99 20.5 169.5t57 124t85.5 99.5q162 163 387 163h714v-556h-778q-22 0 -28.5 -12t-6.5 -20q0 -7 4 -15q9 -16 31 -16h674v-541h-610zM679 622l-499 -164v160l115 37q-30 31 -47 68.5t-17 81.5q0 68 46.5 129.5t112.5 82.5
q34 10 70 10q38 0 70.5 -10t63.5 -23l-32 -133q-60 17 -101 17q-14 0 -25 -3q-23 -7 -41.5 -25.5t-18.5 -42.5q0 -9 3 -19q7 -25 35.5 -41.5t79.5 -16.5q13 0 29.5 2.5t50.5 11.5t97 30z" />
    <glyph glyph-name="uni0626" unicode="&#x626;" horiz-adv-x="1831" arabic-form="isolated" 
d="M750 -636q-139 0 -241.5 37t-174 91.5t-116.5 110.5q-80 98 -124 223.5t-44 256.5q0 138 24 253t61.5 213.5t81.5 185.5l22 43l454 -222l-21 -44q-115 -229 -115 -389q0 -86 24 -131t68 -61t104 -16h396q47 0 77 6.5t47 15.5q-69 18 -184 44q-135 31 -241 58l-26 7l-8 26
q-4 7 -20 79t-22 181q-1 23 -1 46q0 87 20 180q6 34 46 125t136 194q211 208 532 208q60 0 118.5 -11t110.5 -24l47 -13l-130 -494l-49 17q-69 24 -127 24q-161 0 -211 -160q64 -18 118 -32q117 -30 187 -52q189 -62 189 -284v-2q-3 -394 -239 -569q-69 -50 -143 -76.5
t-144.5 -35.5t-128.5 -9h-353zM748 1038l-499 -164v160l115 37q-30 31 -47 68.5t-17 81.5q0 68 46.5 129.5t112.5 82.5q34 10 70 10q38 0 70.5 -10t63.5 -23l-32 -133q-60 17 -101 17q-14 0 -25 -3q-23 -7 -41.5 -25.5t-18.5 -42.5q0 -9 3 -19q7 -25 35.5 -41.5t79.5 -16.5
q13 0 29.5 2.5t50.5 11.5t97 30z" />
    <glyph glyph-name="uni0626.init" unicode="&#x626;" horiz-adv-x="1007" arabic-form="initial" 
d="M-20 -98v556h458q-1 4 -10 50.5t-21 108t-21 109.5l-9 48l490 149l11 -57q11 -58 26 -140t29 -161q16 -84 16 -155q0 -36 -4 -68q-8 -64 -32 -136t-65 -125q-92 -110 -207 -149l-1 -1q-93 -29 -216 -29h-444zM600 1030l-499 -164v160l115 37q-30 31 -47 68.5t-17 81.5
q0 68 46.5 129.5t112.5 82.5q34 10 70 10q38 0 70.5 -10t63.5 -23l-32 -133q-60 17 -101 17q-14 0 -25 -3q-23 -7 -41.5 -25.5t-18.5 -42.5q0 -9 3 -19q7 -25 35.5 -41.5t79.5 -16.5q13 0 29.5 2.5t50.5 11.5t97 30z" />
    <glyph glyph-name="uni0626.medi" unicode="&#x626;" horiz-adv-x="1038" arabic-form="medial" 
d="M935 -98q-152 0 -279 69q-34 -17 -69 -30q-109 -39 -244 -39h-358v556h417v315h507v-315h144v-556h-118zM799 1051l-499 -164v160l115 37q-30 31 -47 68.5t-17 81.5q0 68 46.5 129.5t112.5 82.5q34 10 70 10q38 0 70.5 -10t63.5 -23l-32 -133q-60 17 -101 17
q-14 0 -25 -3q-23 -7 -41.5 -25.5t-18.5 -42.5q0 -9 3 -19q7 -25 35.5 -41.5t79.5 -16.5q13 0 29.5 2.5t50.5 11.5t97 30z" />
    <glyph glyph-name="uni0626.fina" unicode="&#x626;" horiz-adv-x="1939" arabic-form="final" 
d="M786 -637q-353 0 -561 248q-175 225 -175 530q0 134 43.5 293t118.5 298l22 41l453 -219l-22 -44q-105 -214 -105 -369q1 -228 226 -228h266q23 0 72 0.5t95 1.5t64 2q-88 28 -168 40.5t-128 16.5l-48 4v480h1015v-556h-178v-10q0 -174 -84 -293q-72 -101 -201 -160
q-168 -76 -443 -76h-262zM805 1007l-499 -164v160l115 37q-30 31 -47 68.5t-17 81.5q0 68 46.5 129.5t112.5 82.5q34 10 70 10q38 0 70.5 -10t63.5 -23l-32 -133q-60 17 -101 17q-14 0 -25 -3q-23 -7 -41.5 -25.5t-18.5 -42.5q0 -9 3 -19q7 -25 35.5 -41.5t79.5 -16.5
q13 0 29.5 2.5t50.5 11.5t97 30z" />
    <glyph glyph-name="uni06C2.fina" unicode="&#x6c2;" horiz-adv-x="1359" 
d="M1299 -98q-99 0 -199 27.5t-162 71.5q-116 83 -170 184q-26 48 -55.5 111.5t-48.5 131.5v2q-9 40 -17 67q-11 40 -18 68t-13 55q-29 -11 -41 -23.5t-14.5 -25t-2.5 -23.5q0 -26 10 -68q20 -84 41.5 -163.5t37.5 -132.5l16 -53l-480 -142l-15 52q-16 52 -36 120.5t-36 125
t-20 71.5q-26 102 -26 196q0 230 155 395q129 129 309 169q57 12 118 24t104 21l44 8l273 -203q42 -174 72 -291l30 -116q6 -26 18.5 -49t44.5 -38.5t98 -15.5h58v-556h-75zM699 1296l-499 -164v160l115 37q-30 31 -47 68.5t-17 81.5q0 68 46.5 129.5t112.5 82.5
q34 10 70 10q38 0 70.5 -10t63.5 -23l-32 -133q-60 17 -101 17q-14 0 -25 -3q-23 -7 -41.5 -25.5t-18.5 -42.5q0 -9 3 -19q7 -25 35.5 -41.5t79.5 -16.5q13 0 29.5 2.5t50.5 11.5t97 30z" />
    <glyph glyph-name="uni06C1" unicode="&#x6c1;" horiz-adv-x="1155" arabic-form="isolated" 
d="M908 888q46 -50 93.5 -113t80.5 -142.5t33 -178.5q0 -100 -28.5 -198.5t-91.5 -178.5t-166 -128.5t-251 -48.5q-132 0 -225 35t-154.5 92.5t-96 126t-48.5 137t-14 124.5q0 83 30.5 162.5t70.5 142.5t71 101.5t34 40.5q-7 8 -17.5 19.5l-21 23t-17.5 20.5l-7 8l377 336
l42 -47q42 -46 101.5 -111t116 -127t88.5 -96zM572 349q49 0 79 30.5t30 85.5q0 18 -17.5 44t-40 50.5t-39.5 41.5l-17 17l-16 -16q-16 -15 -37 -38.5t-37 -50t-16 -48.5q0 -55 31.5 -85.5t79.5 -30.5z" />
    <glyph glyph-name="uni06C3.fina" unicode="&#x6c3;" horiz-adv-x="1359" 
d="M1299 -98q-99 0 -199 27.5t-162 71.5q-116 83 -170 184q-26 48 -55.5 111.5t-48.5 131.5v2q-9 40 -17 67q-11 40 -18 68t-13 55q-29 -11 -41 -23.5t-14.5 -25t-2.5 -23.5q0 -26 10 -68q20 -84 41.5 -163.5t37.5 -132.5l16 -53l-480 -142l-15 52q-16 52 -36 120.5t-36 125
t-20 71.5q-26 102 -26 196q0 230 155 395q129 129 309 169q57 12 118 24t104 21l44 8l273 -203q42 -174 72 -291l30 -116q6 -26 18.5 -49t44.5 -38.5t98 -15.5h58v-556h-75zM564 1521l-220 -219l-219 219l219 220zM1033 1521l-220 -219l-219 219l219 220z" />
    <glyph glyph-name="uni06BE.fina" unicode="&#x6be;" horiz-adv-x="2065" arabic-form="final" 
d="M804 410q3 0 24 6.5t47.5 22t47.5 43.5t21 72q0 72 -43 115t-97 43q-24 0 -58.5 -13.5t-60.5 -47.5t-26 -97q0 -37 21.5 -63.5t49 -44.5t49.5 -27t25 -9zM1508 429l1 7q0 42 -63 102.5t-149 128.5q-5 4 -9 8q29 -71 29 -139q0 -4 -0.5 -42t-23.5 -102q47 -20 97 -20
q17 0 60 6.5t58 50.5zM1492 -97q-53 -6 -113 -6q-29 0 -59 1q-250 15 -388 35q-100 15 -127 19q-99 -27 -199 -38q-105 -12 -220 -12l-336 52v556l185 -52q-6 40 -6 82q0 240 159 417h1q165 178 413 178q164 0 295 -80l218 221l26 -24q25 -25 62 -61t73 -70.5t59 -56.5
q82 -80 158 -154q192 -193 249 -359q16 -47 24 -92h114v-556h-588z" />
    <glyph glyph-name="uni06BE.init" unicode="&#x6be;" horiz-adv-x="1915" arabic-form="initial" 
d="M1808 551q32 -97 32 -182q0 -64 -18 -121q-26 -91 -99 -174q-74 -85 -207 -135q-112 -42 -271 -42q-29 0 -59 1q-250 15 -388 35q-100 15 -127 19q-99 -27 -199 -38q-105 -12 -220 -12h-267v556h116q-6 40 -6 82q0 240 159 417h1q165 178 413 178q164 0 295 -80l218 221
l26 -24q25 -25 62 -61t73 -70.5t59 -56.5q82 -80 158 -154q192 -193 249 -359zM670 410q3 0 24 6t47.5 22t47 44t20.5 72q0 72 -42.5 114.5t-96.5 42.5q-24 0 -58.5 -13t-60.5 -47t-26 -97q0 -37 21.5 -64t49 -44.5t49.5 -26.5t25 -9zM1374 429v6q0 43 -62.5 103.5
t-148.5 128.5q-5 4 -9 8q29 -71 29 -139q0 -5 -0.5 -42.5t-23.5 -101.5q47 -21 96 -21q18 0 61 7t58 51z" />
    <glyph glyph-name="uni06BE.medi" unicode="&#x6be;" horiz-adv-x="1333" arabic-form="medial" 
d="M1126 -98q-14 0 -22 -9t-12 -19q-4 -13 -4 -28q0 -13 5.5 -35t35.5 -49l27 -22l-146 -376l-28 -4q-166 0 -293 37.5t-220 98.5t-156.5 133.5t-102 144t-56.5 129.5q-14 -1 -41 -1h-56.5h-50.5h-21v556h138q2 19 13 68.5t35 117.5t64 140t100 134.5t144 101.5t196 39
q128 0 214.5 -36.5t141 -90.5t83.5 -109q33 -61 49 -119.5t20.5 -105.5t4.5 -72q0 -34 -5 -68h165v-556h-222zM710 -213q-19 44 -22 97q-1 18 -1 35q0 34 4.5 74.5t11.5 73.5l7 32q-23 -11 -59.5 -24.5t-69.5 -23.5t-46 -12q13 -73 71.5 -144.5t103.5 -107.5zM535 425
q79 0 144 38t65 91q0 47 -21.5 64.5t-47.5 17.5q-44 -1 -73 -40.5t-45 -89t-22 -81.5z" />
    <glyph glyph-name="fathatan_01" unicode="&#xfe70;" arabic-form="isolated" 
d="M-262 1596v150l504 187v-148zM-262 1838v149l504 187v-147z" />
    <glyph glyph-name="dammatan_01" unicode="&#xfe72;" arabic-form="isolated" 
d="M-213 1594l-62 85l8 16q12 24 21 46.5t9 42.5q0 15 -7 28q-19 17 -41 17q-18 0 -36.5 -8t-33.5 -19l-79 77q5 7 24 24.5t51 33t75 15.5h6q79 -8 120 -76q23 -50 23 -97q0 -11 -1 -24.5t-3 -23.5q43 9 86.5 28.5t69.5 43.5q-64 31 -105 83.5t-41 109.5q0 30 14 60
q27 54 79 89.5t107 35.5q36 0 65 -14q56 -28 80 -78t24 -108q0 -97 -63 -187q-62 -77 -146.5 -120t-154 -61t-89.5 -19zM71 2055q-19 0 -45.5 -12t-41.5 -32q10 -38 47 -64t74 -41q10 16 14.5 32t4.5 42q0 31 -14.5 53t-38.5 22z" />
    <glyph glyph-name="kasratan_01" unicode="&#xfe74;" arabic-form="isolated" 
d="M-252 -826v150l504 187v-147zM-252 -584v149l504 188v-148z" />
    <glyph glyph-name="fatha_01" unicode="&#xfe76;" arabic-form="isolated" 
d="M-251 1596v150l504 187v-148z" />
    <glyph glyph-name="damma_01" unicode="&#xfe78;" arabic-form="isolated" 
d="M-268 1592l-36 126q67 20 142.5 48.5t133.5 67.5q-70 26 -116.5 79.5t-46.5 116.5q0 32 15 65q26 54 79.5 89.5t112.5 35.5q34 0 67 -15q59 -30 84.5 -78t25.5 -104q0 -58 -21 -116t-55 -105q-46 -61 -119 -103t-144.5 -67.5t-113.5 -37.5zM15 2098q-22 0 -48.5 -12.5
t-39.5 -35.5q-2 -4 -2 -8q0 -23 38.5 -59t91.5 -47q16 33 16 78q0 29 -13 54.5t-43 29.5z" />
    <glyph glyph-name="kasra_01" unicode="&#xfe7a;" arabic-form="isolated" 
d="M-252 -584v149l504 188v-148z" />
    <glyph glyph-name="shadda_01" unicode="&#xfe7c;" arabic-form="isolated" 
d="M-130 1594q-94 0 -148 53t-54 146v109h125v-109q0 -79 77 -75q8 0 23 4.5t27.5 20.5t12.5 50v109h126v-109q0 -79 78 -76q8 0 22 5.5t26 22t12 48.5q0 40 -21 110q-4 15 -8 32l118 40l8 -31q1 -2 1 -5q9 -29 18 -68t9 -78q0 -67 -28.5 -111.5t-71.5 -66.5t-87 -22
q-84 0 -140 46q-27 -22 -60 -33.5t-65 -11.5z" />
    <glyph glyph-name="sukun_01" unicode="&#xfe7e;" arabic-form="isolated" 
d="M-2 1594q-109 0 -174.5 62.5t-65.5 169.5q0 109 65.5 172.5t174.5 63.5q105 0 175.5 -63.5t70.5 -170.5q0 -106 -67.5 -170t-171.5 -64h-7zM-2 1731q42 0 72.5 24.5t30.5 70.5t-30.5 73t-72.5 27q-43 0 -74 -26.5t-31 -73.5q0 -49 28 -72t77 -23z" />
    <glyph glyph-name="uni0651064C" unicode="&#xfc5e;" arabic-form="isolated" 
d="M-130 1604q-94 0 -148 53t-54 146v109h125v-109q0 -79 77 -75q8 0 23 4.5t27.5 20.5t12.5 50v109h126v-109q0 -79 78 -76q8 0 22 5.5t26 22t12 48.5q0 40 -21 110q-4 15 -8 32l118 40l8 -31q1 -2 1 -5q9 -29 18 -68t9 -78q0 -67 -28.5 -111.5t-71.5 -66.5t-87 -22
q-84 0 -140 46q-27 -22 -60 -33.5t-65 -11.5zM-213 2043l-62 85l8 16q12 24 21 46.5t9 42.5q0 15 -7 28q-19 17 -41 17q-18 0 -36.5 -8t-33.5 -19l-79 77q5 7 24 24.5t51 33t75 15.5h6q79 -8 120 -76q23 -50 23 -97q0 -11 -1 -24.5t-3 -23.5q43 9 86.5 28.5t69.5 43.5
q-64 31 -105 83.5t-41 109.5q0 30 14 60q27 54 79 89.5t107 35.5q36 0 65 -14q56 -28 80 -78t24 -108q0 -97 -63 -187q-62 -77 -146.5 -120t-154 -61t-89.5 -19zM71 2504q-19 0 -45.5 -12t-41.5 -32q10 -38 47 -64t74 -41q10 16 14.5 32t4.5 42q0 31 -14.5 53t-38.5 22z" />
    <glyph glyph-name="uni0651064D" unicode="&#xfc5f;" arabic-form="isolated" 
d="M-139 2186q-94 0 -148 53t-54 146v109h125v-109q0 -79 77 -75q8 0 23 4.5t27.5 20.5t12.5 50v109h126v-109q0 -79 78 -76q8 0 22 5.5t26 22t12 48.5q0 40 -21 110q-4 15 -8 32l118 40l8 -31q1 -2 1 -5q9 -29 18 -68t9 -78q0 -67 -28.5 -111.5t-71.5 -66.5t-87 -22
q-84 0 -140 46q-27 -22 -60 -33.5t-65 -11.5zM-269 1600v150l504 187v-147zM-269 1842v149l504 188v-148z" />
    <glyph glyph-name="uni0651064E" unicode="&#xfc60;" arabic-form="isolated" 
d="M-130 1604q-94 0 -148 53t-54 146v109h125v-109q0 -79 77 -75q8 0 23 4.5t27.5 20.5t12.5 50v109h126v-109q0 -79 78 -76q8 0 22 5.5t26 22t12 48.5q0 40 -21 110q-4 15 -8 32l118 40l8 -31q1 -2 1 -5q9 -29 18 -68t9 -78q0 -67 -28.5 -111.5t-71.5 -66.5t-87 -22
q-84 0 -140 46q-27 -22 -60 -33.5t-65 -11.5zM-293 2008v150l504 187v-148z" />
    <glyph glyph-name="uni0651064F" unicode="&#xfc61;" arabic-form="isolated" 
d="M-130 1594q-94 0 -148 53t-54 146v109h125v-109q0 -79 77 -75q8 0 23 4.5t27.5 20.5t12.5 50v109h126v-109q0 -79 78 -76q8 0 22 5.5t26 22t12 48.5q0 40 -21 110q-4 15 -8 32l118 40l8 -31q1 -2 1 -5q9 -29 18 -68t9 -78q0 -67 -28.5 -111.5t-71.5 -66.5t-87 -22
q-84 0 -140 46q-27 -22 -60 -33.5t-65 -11.5zM-228 1969l-36 126q67 20 142.5 48.5t133.5 67.5q-70 26 -116.5 79.5t-46.5 116.5q0 32 15 65q26 54 79.5 89.5t112.5 35.5q34 0 67 -15q59 -30 84.5 -78t25.5 -104q0 -58 -21 -116t-55 -105q-46 -61 -119 -103t-144.5 -67.5
t-113.5 -37.5zM55 2475q-22 0 -48.5 -12.5t-39.5 -35.5q-2 -4 -2 -8q0 -23 38.5 -59t91.5 -47q16 33 16 78q0 29 -13 54.5t-43 29.5z" />
    <glyph glyph-name="uni06510650" unicode="&#xfc62;" arabic-form="isolated" 
d="M-126 1947q-94 0 -148 53t-54 146v109h125v-109q0 -79 77 -75q8 0 23 4.5t27.5 20.5t12.5 50v109h126v-109q0 -79 78 -76q8 0 22 5.5t26 22t12 48.5q0 40 -21 110q-4 15 -8 32l118 40l8 -31q1 -2 1 -5q9 -29 18 -68t9 -78q0 -67 -28.5 -111.5t-71.5 -66.5t-87 -22
q-84 0 -140 46q-27 -22 -60 -33.5t-65 -11.5zM-249 1599v149l504 188v-148z" />
    <glyph glyph-name="uniFC63" unicode="&#xfc63;" arabic-form="isolated" 
d="M-130 1614q-94 0 -148 53t-54 146v109h125v-109q0 -79 77 -75q8 0 23 4.5t27.5 20.5t12.5 50v109h126v-109q0 -79 78 -76q8 0 22 5.5t26 22t12 48.5q0 40 -21 110q-4 15 -8 32l118 40l8 -31q1 -2 1 -5q9 -29 18 -68t9 -78q0 -67 -28.5 -111.5t-71.5 -66.5t-87 -22
q-84 0 -140 46q-27 -22 -60 -33.5t-65 -11.5zM-76 2054v408h150v-408h-150z" />
    <glyph glyph-name="uni0692.fina" unicode="&#x692;" horiz-adv-x="972" 
d="M906 774v-286q0 -5 2.5 -12t10 -12.5t22.5 -5.5h66v-556h-76q-26 0 -53 3q-21 -74 -57 -156.5t-93 -153.5l-1 -1q-104 -118 -257 -175q-143 -54 -323 -54h-147v553h147q145 0 200 57q52 65 52 213v586h507zM944 1316l-231 -413h-131l-234 413h171l126 -253l130 253h169z
" />
    <glyph glyph-name="uni0695.fina" unicode="&#x695;" horiz-adv-x="972" 
d="M906 774v-286q0 -5 2.5 -12t10 -12.5t22.5 -5.5h66v-556h-76q-26 0 -53 3q-21 -74 -57 -156.5t-93 -153.5l-1 -1q-104 -118 -257 -175q-143 -54 -323 -54h-147v553h147q145 0 200 57q52 65 52 213v586h507zM648 -679l-231 -413h-131l-234 413h171l126 -253l130 253h169z
" />
    <glyph glyph-name="uni06A4.init" unicode="&#x6a8;" horiz-adv-x="1218" 
d="M1011 953q157 -180 157 -439v-71q0 -155 -77 -278q-78 -123 -224 -193q-145 -69 -348 -69h-534v555h93q-2 29 -2 56q0 176 52 296t134 192q82 70 174 100q91 29 169 29q234 0 404 -177l1 -1h1zM726 446v96q0 20 -10 45.5t-35.5 45t-72.5 19.5q-16 0 -43.5 -9t-49.5 -33
t-22 -68q0 -59 22.5 -77t67.5 -18q18 0 63 -1h80zM803 1709l-201 -200l-200 200l200 201zM557 1399l-220 -219l-219 219l219 220zM1076 1399l-220 -219l-219 219l219 220z" />
    <glyph glyph-name="uni06A4.medi" unicode="&#x6a8;" horiz-adv-x="1334" 
d="M1236 458h113v-556h-265q-113 0 -207 11t-207 38q-175 -49 -417 -49h-268v556h115q-5 39 -5 82q0 240 161 417q168 178 413 178q241 0 412 -178q161 -177 161 -417q0 -43 -6 -82zM669 418q6 1 27 8t46 22.5t43.5 41t18.5 62.5q0 12 -5 36t-19.5 49.5t-41 43.5t-69.5 18
q-44 0 -70.5 -18t-40.5 -43.5t-19 -49.5t-5 -36q0 -38 18.5 -63.5t43 -40.5t45.5 -22t28 -8zM873 1721l-201 -200l-200 200l200 201zM627 1411l-220 -219l-219 219l219 220zM1146 1411l-220 -219l-219 219l219 220z" />
    <glyph glyph-name="uni06A8.fina" unicode="&#x6a8;" horiz-adv-x="1885" 
d="M1206 405h155v96q0 47 -34 79q-34 31 -84 31q-49 0 -82 -32t-33 -78q0 -25 6 -47q5 -22 22 -35q16 -14 50 -14zM1802 458h93v-556h-106q-10 -58 -30 -107q-42 -108 -107 -183q-63 -73 -128 -123l-2 -2q-40 -27 -107 -57q-68 -30 -191 -49q-105 -17 -267 -17h-174
q-211 0 -373 77.5t-257 223.5l-1 1q-80 135 -96 253q-10 73 -10 142q0 43 4 85q14 235 144 523l20 44l462 -208l-20 -44q-92 -207 -101 -346q-1 -13 -1 -24q0 -69 25 -107q51 -69 204 -69h15v1h73q73 1 169 1h166h161q2 0 5.5 2.5t3.5 7.5t-3.5 7.5t-5.5 2.5q-85 0 -174.5 8
t-173 33.5t-150 79t-106 143t-39.5 225.5q0 175 50 293.5t128 190t168 102.5t170 31q235 0 405 -177v-1h1q147 -168 156 -407zM1440 1598l-201 -200l-200 200l200 201zM1194 1288l-220 -219l-219 219l219 220zM1713 1288l-220 -219l-219 219l219 220z" />
    <glyph glyph-name="uni06AA.init" unicode="&#x6aa;" horiz-adv-x="1888" 
d="M1638 -31q-33 -22 -76 -40q-64 -27 -153 -27h-1424v556h514l923 1q-4 5 -8 12q-8 15 -21 30t-34.5 26.5t-55.5 11.5h-664.5t-323.5 1h-23l-232 513v20q56 124 195 226t314.5 180t340.5 131.5t275 81.5l109 27l150 -448l-251 -62q-252 -63 -621 -230l662 34
q228 -8 366.5 -130.5t177 -260t38.5 -235.5q0 -74 -16 -147q-38 -169 -162 -271z" />
    <glyph glyph-name="uni06AA.medi" unicode="&#x6aa;" horiz-adv-x="2097" 
d="M2054 -98q-74 0 -168 14q-84 13 -172 53q-33 -22 -76 -40q-65 -27 -153 -27h-1500v556h1368q-4 6 -8 13q-8 15 -21.5 29.5t-34.5 26.5t-55 12q-790 0 -899 1h-23l-232 513v20q56 124 195 226t314.5 180t340.5 131.5t274 81.5l110 27l150 -448l-256 -63
q-256 -63 -624 -222l726 27q92 0 171 -46t143 -113.5t112 -137.5t79 -122q11 -19 20 -33q7 -10 12.5 -18.5t8.5 -12.5q38 -34 68 -50t58 -18q35 -3 72 -3h58v-557h-58z" />
    <glyph glyph-name="uni06AA.fina" unicode="&#x6aa;" horiz-adv-x="2713" 
d="M551 458h1418q-4 6 -8 13q-8 15 -21.5 29.5t-34.5 26.5t-55 12q-790 0 -899 1h-23l-232 513v20q56 124 195 226t314.5 180t340.5 131.5t275 81.5q101 25 108 27h1l150 -448h-1q-6 -2 -317 -70t-562 -218l726 30q92 0 171 -46t143 -113.5t112 -137.5t79 -122
q11 -19 20 -33q7 -10 12.5 -18.5t8.5 -12.5q38 -34 68 -50t58 -18q35 -3 72 -3h58v-557h-58q-74 0 -168 14q-84 13 -172 53q-33 -22 -76 -40q-65 -27 -153 -27h-1411q-62 1 -110 2q-89 3 -152 13q-193 31 -295 188l-1 1l-1 2q-81 150 -81 346q0 46 5 96v3q25 156 60 263
l18 55l481 -142v-1q-2 -7 -9 -39q-10 -41 -22.5 -94t-21.5 -92.5t-10 -44.5z" />
    <glyph glyph-name="uni06B5.init" unicode="&#x6b5;" horiz-adv-x="726" 
d="M-15 -98v556h134v1032h506l1 -1052q-11 -150 -38 -206v-1q-41 -102 -123 -181q-161 -147 -401 -148h-79zM647 2022l-231 -413h-131l-234 413h171l126 -253l130 253h169z" />
    <glyph glyph-name="uni06B5.medi" unicode="&#x6b5;" horiz-adv-x="702" 
d="M627 458h90v-556h-49q-110 0 -206 36q-48 17 -89 42q-135 -78 -309 -78h-79v556h134v1031h507zM681 2013l-231 -413h-131l-234 413h171l126 -253l130 253h169z" />
    <glyph glyph-name="uni06B5.fina" unicode="&#x6b5;" horiz-adv-x="1562" 
d="M1469 1487v-1029h108v-556h-49q-35 0 -68 4q-28 -227 -144 -351q-97 -102 -254 -150q-130 -41 -319 -41q-188 0 -335.5 75.5t-238.5 218.5q-40 62 -62 129.5t-32 108.5v1q-21 88 -21 177q0 18 1 36q8 219 123 459l20 44l458 -215l-20 -44q-70 -152 -75 -263v-10
q0 -66 24 -104q28 -39 76 -50.5t82 -11.5q54 0 106 5t80 22q13 8 23.5 32.5t10.5 86.5v1426h506zM1516 2008l-231 -413h-131l-234 413h171l126 -253l130 253h169z" />
    <glyph glyph-name="uni06A4.fina" unicode="&#x6a4;" horiz-adv-x="2263" arabic-form="final" 
d="M1598 418q6 1 27 8t46 22.5t43.5 41t18.5 62.5q0 12 -5 36t-19.5 49.5t-41 43.5t-69.5 18q-44 0 -70.5 -18t-40.5 -43.5t-19 -49.5t-5 -36q0 -38 18.5 -63.5t43 -40.5t45.5 -22t28 -8zM822 -98q-136 0 -223 2q-89 3 -152 13q-193 31 -295 188l-1 1l-1 2q-81 150 -81 346
q0 46 5 96v3q25 156 60 263l18 55l481 -142v-1q-2 -7 -9 -39q-10 -41 -22.5 -94t-21.5 -92.5t-10 -44.5h459q-5 39 -5 82q0 240 160 417q169 178 414 178q240 0 412 -178q161 -177 161 -417q0 -43 -6 -82h113v-556h-265q-113 0 -207 11t-207 38q-175 -49 -417 -49h-360z
M1803 1703l-201 -200l-200 200l200 201zM1557 1393l-220 -219l-219 219l219 220zM2076 1393l-220 -219l-219 219l219 220z" />
    <glyph glyph-name="uni06C6.fina" unicode="&#x6c6;" horiz-adv-x="1227" arabic-form="final" 
d="M560 405h155v96q0 47 -34 79q-34 31 -84 31q-49 0 -82 -32t-33 -78q0 -25 5 -47q6 -22 22 -35q17 -14 51 -14zM1155 458h87v-556h-100q-10 -58 -30 -107q-42 -108 -107 -183q-63 -73 -128 -123l-2 -2q-39 -27 -106 -57q-68 -30 -191 -49q-105 -17 -268 -17h-159v552h1
q7 0 72 1h496q2 0 6 2.5t4 7.5t-4 7.5t-6 2.5q-84 0 -174 8t-173.5 33.5t-149.5 79t-105.5 143t-39.5 225.5q0 175 49.5 293.5t127.5 190t168 102.5t171 31q234 0 404 -177v-1h1q147 -168 156 -407zM923 1536l-231 -413h-131l-234 413h171l126 -253l130 253h169z" />
    <glyph glyph-name="uni06CE.init" unicode="&#x6ce;" horiz-adv-x="1007" 
d="M-20 -98v556h458q-1 4 -10 50.5t-21 108t-21 109.5l-9 48l490 149l11 -57q11 -58 26 -140t29 -161q16 -84 16 -155q0 -36 -4 -68q-8 -64 -32 -136t-65 -125q-92 -110 -207 -149l-1 -1q-93 -29 -216 -29h-444zM218 -125l220 -219l-220 -220l-219 220zM687 -125l220 -219
l-220 -220l-219 220zM705 1437l-231 -413h-131l-234 413h171l126 -253l130 253h169z" />
    <glyph glyph-name="uni06CE.medi" unicode="&#x6ce;" horiz-adv-x="1038" 
d="M935 -98q-152 0 -279 69q-34 -17 -69 -30q-109 -39 -244 -39h-358v556h417v315h507v-315h144v-556h-118zM262 -117l220 -219l-220 -220l-219 220zM731 -117l220 -219l-220 -220l-219 220zM941 1269l-231 -413h-131l-234 413h171l126 -253l130 253h169z" />
    <glyph glyph-name="uni06CE.fina" unicode="&#x6ce;" horiz-adv-x="1939" 
d="M786 -637q-353 0 -561 248q-175 225 -175 530q0 134 43.5 293t118.5 298l22 41l453 -219l-22 -44q-105 -214 -105 -369q1 -228 226 -228h266q23 0 72 0.5t95 1.5t64 2q-88 28 -168 40.5t-128 16.5l-48 4v480h1015v-556h-178v-10q0 -174 -84 -293q-72 -101 -201 -160
q-168 -76 -443 -76h-262zM1235 1039l-231 -413h-131l-234 413h171l126 -253l130 253h169z" />
    <glyph glyph-name=".notdef" horiz-adv-x="1229" 
d="M102 -362v1806h1024v-1806h-1024zM217 -248h795v1577h-795v-1577z" />
    <glyph glyph-name="NULL" unicode="&#xfeff;" 
 />
    <glyph glyph-name="NULL" 
 />
    <glyph glyph-name="nonmarkingreturn" horiz-adv-x="602" 
 />
    <glyph glyph-name="space" unicode=" " horiz-adv-x="696" 
 />
    <glyph glyph-name="space" unicode="&#xa0;" horiz-adv-x="696" 
 />
    <glyph glyph-name="uni0640" unicode="&#x640;" horiz-adv-x="429" 
d="M4 458h428q40 0 41 -47v-461q0 -26 -10.5 -37t-30.5 -11h-428q-44 0 -40 48v461q0 21 9 34t31 13z" />
    <glyph glyph-name="uni066E" unicode="&#x66e;" horiz-adv-x="2163" 
d="M822 -103q-136 0 -223 2q-89 3 -152 13q-193 31 -295 188l-1 1l-1 2q-81 150 -81 346q0 46 5 96v3q25 156 60 263l18 55l481 -142l-9 -40q-10 -41 -22.5 -94t-21.5 -94t-10 -46h1024q0 3 -8 43.5t-18 92.5t-18 93l-8 41l492 143l2 -11q2 -12 5 -28t5.5 -30t3.5 -19l1 -1
q17 -94 38 -213q16 -80 16 -149q0 -38 -5 -73q-5 -166 -95 -275q-80 -97 -210 -137q-92 -30 -215 -30h-758z" />
    <glyph glyph-name="feh_dotless.isol" horiz-adv-x="2174" 
d="M1682 446v96q0 20 -10 45.5t-35.5 45t-72.5 19.5q-16 0 -43.5 -9t-49.5 -33t-22 -68q0 -59 22.5 -77t68.5 -18q17 0 62 -1h80zM941 -98h-119q-136 0 -223 2q-89 3 -152 13q-193 31 -295 188l-1 1l-1 2q-81 150 -81 346q0 46 5 96v3q25 156 60 263l18 55l481 -142v-1
q-2 -7 -9 -39q-10 -41 -22.5 -94t-21.5 -92.5t-10 -44.5h464q-1 29 -1 56q0 176 51 296q52 120 135 192q81 70 174 100q90 29 168 29q235 0 405 -177v-1h1q157 -180 157 -439v-71q0 -155 -77 -278q-78 -123 -224 -193q-145 -69 -347 -69z" />
    <glyph glyph-name="uni06A1.fina" horiz-adv-x="2263" 
d="M1598 418q6 1 27 8t46 22.5t43.5 41t18.5 62.5q0 12 -5 36t-19.5 49.5t-41 43.5t-69.5 18q-44 0 -70.5 -18t-40.5 -43.5t-19 -49.5t-5 -36q0 -38 18.5 -63.5t43 -40.5t45.5 -22t28 -8zM822 -98q-136 0 -223 2q-89 3 -152 13q-193 31 -295 188l-1 1l-1 2q-81 150 -81 346
q0 46 5 96v3q25 156 60 263l18 55l481 -142v-1q-2 -7 -9 -39q-10 -41 -22.5 -94t-21.5 -92.5t-10 -44.5h459q-5 39 -5 82q0 240 160 417q169 178 414 178q240 0 412 -178q161 -177 161 -417q0 -43 -6 -82h113v-556h-265q-113 0 -207 11t-207 38q-175 -49 -417 -49h-360z" />
    <glyph glyph-name="uni066F" unicode="&#x66f;" horiz-adv-x="1843" 
d="M1206 405h155v96q0 47 -34 79q-34 31 -84 31q-49 0 -82 -32t-33 -78q0 -25 6 -47q5 -22 22 -35q16 -14 50 -14zM783 -636q-211 0 -373 77.5t-257 223.5l-1 1q-80 135 -96 253q-10 73 -10 142q0 43 4 85q14 235 144 523l20 44l462 -208l-20 -44q-92 -207 -101 -346
q-1 -13 -1 -24q0 -69 25 -107q51 -69 204 -69h15v1h73q73 1 169 1h166h161q2 0 5.5 2.5t3.5 7.5t-3.5 7.5t-5.5 2.5q-85 0 -174.5 8t-173 33.5t-150 79t-106 143t-39.5 225.5q0 175 50 293.5t128 190t168 102.5t170 31q235 0 405 -177v-1h1q157 -179 157 -439v-374
q-1 -148 -44 -257q-42 -108 -107 -183q-63 -73 -128 -123l-2 -2q-40 -27 -107 -57q-68 -30 -191 -49q-105 -17 -267 -17h-174z" />
    <glyph glyph-name="onedot.above" 
d="M234 1312l-234 -233l-233 233l233 234z" />
    <glyph glyph-name="twodots.above" 
d="M-15 1312l-220 -219l-219 219l219 220zM454 1312l-220 -219l-219 219l219 220z" />
    <glyph glyph-name="threedots.above" 
d="M201 1622l-201 -200l-200 200l200 201zM-45 1312l-220 -219l-219 219l219 220zM474 1312l-220 -219l-219 219l219 220z" />
    <glyph glyph-name="threedots.below" 
d="M201 -685l-201 -201l-200 201l200 200zM-45 -375l-220 -220l-219 220l219 219zM474 -375l-220 -220l-219 220l219 219z" />
    <glyph glyph-name="uni0660" unicode="&#x660;" horiz-adv-x="1196" 
d="M986 967q160 -168 160 -386t-160 -387l-2 -2q-168 -159 -386 -159t-386 159l-2 2q-160 169 -160 387t160 386l2 2q168 159 386 159t386 -159zM698 481q41 41 41 100q0 58 -41 100q-41 41 -100 41q-58 0 -100 -41q-41 -42 -41 -100q0 -59 41 -100q42 -42 100 -42
q59 0 100 42z" />
    <glyph glyph-name="uni0661" unicode="&#x661;" horiz-adv-x="775" 
d="M192 -97v49q0 71 0.5 116.5t1.5 85.5v3q2 90 2 191q0 75 -1 157q-3 190 -31.5 404.5t-99.5 441.5l-14 47l482 152l15 -46q83 -267 116.5 -515t36.5 -402.5t3 -240.5q0 -107 -3 -199v-3q0 -38 -1 -81.5t-1 -110.5v-49h-506z" />
    <glyph glyph-name="uni0662" unicode="&#x662;" horiz-adv-x="1369" 
d="M211 -97v193q1 45 1 90q0 246 -23 517q-27 320 -125 642l-14 46l482 152l9 -28q8 -28 20.5 -69.5t24.5 -83t20 -70.5q14 -56 36 -109.5t53.5 -89.5t76.5 -36q37 0 46 28.5t9 59.5q0 14 -2 30q-5 49 -17.5 98.5t-23.5 83.5l-12 34l460 158l6 -20q6 -21 14.5 -50t16.5 -58
t13 -47v-1q37 -158 37 -264q0 -299 -141 -445q-153 -159 -377 -159q-45 0 -90 7q8 -163 8 -312q0 -54 -1 -107v-190h-507z" />
    <glyph glyph-name="uni0663" unicode="&#x663;" horiz-adv-x="1733" 
d="M208 -101v49v99t1 66v12q1 46 1 96q0 132 -6 293q-8 220 -52 474q-11 38 -22.5 93.5t-20.5 104.5q-1 7 -2 10q-21 79 -42 143l-15 46l488 155l12 -52q12 -52 27 -120t27.5 -122.5t14.5 -64.5q8 -39 15 -73q13 -68 26 -106.5t35 -38.5h3q20 3 20.5 20.5t0.5 20.5
q0 29 -9 72q-15 78 -27.5 149.5t-19.5 117.5l-8 46l453 81l8 -61q8 -61 18.5 -143.5t20.5 -154.5q2 -13 4 -27q5 -47 14.5 -84t32.5 -37h1q17 3 21.5 21.5t4.5 37.5q0 8 -1 16q-2 28 -6 51q0 3 -1 5q-8 65 -18 144t-17 139l-7 60l445 114l11 -48q1 -4 11.5 -67t21.5 -153.5
t11 -168.5q0 -66 -7 -139.5t-29.5 -146.5t-68.5 -138q-61 -87 -154 -137q-101 -51 -217 -51q-148 0 -265 71q-99 -66 -230 -74q5 -113 5 -236q0 -76 -2 -156v-208h-507z" />
    <glyph glyph-name="uni0664" unicode="&#x664;" horiz-adv-x="1316" 
d="M788 -126q-128 0 -246 36l-1 1q-111 37 -195 107l-1 1q-87 75 -133 180v1q-34 80 -34 164q0 31 5 62q13 97 68 186q-69 45 -116 113q-50 72 -63 157q-3 25 -3 50q0 141 105 265q78 92 217 169q128 69 233.5 105.5t125.5 40.5l43 12l163 -426l-49 -16
q-164 -52 -261.5 -95.5t-97.5 -64.5v-1q8 -18 61 -18h34t105 10t126 19q13 2 22 3l47 7l76 -409l-43 -12q-142 -39 -216.5 -80.5t-74.5 -72.5q0 -5 2 -9q13 -21 47 -21h39q60 0 127 13q73 13 114 31l43 20l209 -413l-46 -21q-89 -41 -166 -60t-155 -28h-6q-53 -6 -105 -6z
" />
    <glyph glyph-name="uni0665" unicode="&#x665;" horiz-adv-x="1396" 
d="M1240 939q46 -74 69 -148.5t30 -148t7 -144.5q0 -108 -38.5 -211.5t-108.5 -187.5q-40 -49 -106.5 -97t-162 -80.5t-226.5 -32.5q-123 0 -216.5 32t-160.5 79.5t-110 95.5q-79 87 -123 193.5t-44 210.5q0 142 29.5 243t80 188t116.5 180l34 51q29 43 62 94l160 244
l249 -149l1 -1q348 -228 458 -411zM706 432q41 0 76.5 32t35.5 76q0 48 -17 76.5t-40 52.5q-4 6 -9 11q-20 27 -59 60q-47 -55 -77 -101t-30 -99q0 -48 36.5 -78t83.5 -30z" />
    <glyph glyph-name="uni0666" unicode="&#x666;" horiz-adv-x="1358" 
d="M808 -90q-138 473 -142 1013q-56 -6 -124 -6q-118 0 -244 16.5t-208 43.5l-40 13l98 546l52 -15q125 -36 286 -36q83 0 158 7q114 13 212 37q6 3 15 3h18l292 -248l-3 -25q-16 -153 -16 -308q0 -443 133 -897l13 -46l-486 -145z" />
    <glyph glyph-name="uni0667" unicode="&#x667;" horiz-adv-x="1669" 
d="M580 -99v48q0 219 -142 603q-158 410 -357 653l-31 37l389 326l31 -37q101 -125 205.5 -378.5t157.5 -513.5q54 260 161.5 515.5t204.5 375.5l31 38l389 -326l-31 -37q-200 -245 -357 -653q-144 -382 -144 -603v-48h-507z" />
    <glyph glyph-name="uni0668" unicode="&#x668;" horiz-adv-x="1669" 
d="M580 1568h507v-49q0 -220 144 -602q157 -408 357 -654l31 -37l-389 -325l-31 37q-97 121 -204.5 376.5t-161.5 514.5q-53 -259 -157.5 -512.5t-205.5 -378.5l-31 -37l-389 325l31 37q199 244 357 654q142 384 142 602v49z" />
    <glyph glyph-name="uni0669" unicode="&#x669;" horiz-adv-x="1202" 
d="M1125 84l17 -45l-464 -177l-17 45q-50 143 -79 403q-10 89 -11 165q0 10 -1 20h-22q-166 0 -286 74h-1q-73 48 -119.5 126.5t-69 171t-22.5 176.5q0 65 19 154t64 174q134 233 403 233q82 0 147 -18.5t108 -46t76 -55.5q97 -84 146 -213q47 -123 47 -290
q0 -319 13.5 -508.5t28.5 -280t23 -108.5zM550 977h73v44q-1 15 -1 26.5v14.5q0 25 -6.5 50.5t-26 42.5t-59.5 17t-60 -17.5t-26.5 -43.5t-6.5 -49q0 -27 8.5 -46t33 -29t71.5 -10z" />
    <glyph glyph-name="uni06F4" unicode="&#x6f4;" horiz-adv-x="1605" 
d="M211 -102l4 94q3 93 3 166q0 100 -4 234q-7 229 -40.5 486.5t-108.5 485.5l-15 47l484 152l14 -46q33 -99 62 -206q49 87 93 127q80 74 181.5 114.5t206.5 40.5q80 0 144.5 -18.5t121 -47.5t112.5 -63l2 -1q27 -17 57 -33l-192 -378l-27 13q-27 13 -68 29t-85 29t-77 13
h-10q-1 1 -3 1h-6q-27 0 -44.5 -18t-20.5 -36q-1 -6 -1 -12q0 -40 37 -71q44 -32 186 -37q12 0 25 1q46 3 98 10.5t77 12.5q22 4 23 5l115 -494q-2 -2 -53 -15t-160 -26.5t-286 -13.5q-76 0 -169.5 14t-171.5 39q2 -61 3 -163.5t1 -209v-165.5v-60h-508z" />
    <glyph glyph-name="uni06F5" unicode="&#x6f5;" horiz-adv-x="1482" 
d="M656 1632l56 -47q57 -47 145 -129.5t186.5 -191t187 -233.5t145 -257.5t56.5 -261.5q0 -17 -3.5 -69t-21.5 -121.5t-58.5 -143t-114 -137t-187.5 -103.5t-281 -40q-179 0 -302 40t-201.5 103.5t-122.5 137.5t-63 143.5t-23 121t-4 68.5q0 102 43 212.5t102 209.5
t110.5 170.5t72.5 97.5q4 5 6 8q-15 13 -18 16l-45 29zM945 415q57 35 57 97q0 75 -40 154.5t-91 147.5t-90 110l-40 42l-39 -47q-38 -48 -87.5 -119.5t-88 -149t-38.5 -138.5q0 -71 70 -101q70 -31 208 -31q122 0 179 35z" />
    <glyph glyph-name="uni06F6" unicode="&#x6f6;" horiz-adv-x="1379" 
d="M108 42l19 45q119 263 242 455q-98 44 -171 124h-1q-135 154 -135 358q0 19 1 39v1q7 105 56 195q68 117 165.5 189.5t193.5 110.5t162 51l65 13l99 -410l-29 -16q-29 -17 -70 -43.5t-79 -57t-54 -53t-16 -37.5q0 -9 4 -17q12 -15 34 -15q14 0 32 6q45 16 101.5 54.5
t109.5 83t88 76.5l35 32l368 -358l-17 -18q-17 -18 -42 -44t-52 -54q-76 -79 -191 -217q-114 -136 -234 -312q-119 -175 -200 -338l-20 -43z" />
    <glyph glyph-name="uni066A" unicode="&#x66a;" horiz-adv-x="1376" 
d="M115 -99l659 1682h493l-660 -1682h-492zM565 1325l-258 -257l-257 257l257 258zM1326 158l-258 -257l-257 257l257 258z" />
    <glyph glyph-name="uni061F" unicode="&#x61f;" horiz-adv-x="1166" 
d="M400 279v275q-20 24 -140 122q-210 181 -210 434q0 28 6 81.5t27.5 117.5t66.5 129q32 46 88.5 91.5t143.5 76.5t211 31q302 0 442 -247q36 -69 53.5 -137.5t22.5 -125t5 -86.5h-448q0 28 -9 59t-27.5 52.5t-48.5 21.5q-34 0 -55 -19.5t-21 -51.5q0 -27 29.5 -56.5
t78.5 -69.5q15 -12 31 -25q11 -9 21 -18q125 -102 182.5 -201.5t57.5 -255.5v-198h-507zM906 -100l-258 -257l-257 257l257 258z" />
    <glyph glyph-name="uni060C" unicode="&#x60c;" horiz-adv-x="664" 
d="M349 -98q-116 0 -202 77q-97 94 -97 260q0 84 30 158t73.5 134t87.5 103t74 67l30 23l222 -204l-25 -17q-25 -18 -56 -46t-53 -60q79 -25 130 -91.5t51 -150.5q0 -101 -81 -180q-84 -73 -184 -73z" />
    <glyph glyph-name="uni061B" unicode="&#x61b;" horiz-adv-x="669" 
d="M83 150q0 107 76 183.5t183 76.5q108 0 184 -76.5t76 -183.5q0 -108 -76 -183.5t-184 -75.5q-107 0 -183 75.5t-76 183.5zM351 554q-117 0 -202 77q-97 94 -97 260q0 84 30 158t73.5 134t87.5 103t74 67l30 23l222 -204l-25 -17q-25 -18 -56 -46t-54 -60q80 -25 131 -91
t51 -151q0 -101 -81 -180q-84 -73 -184 -73z" />
    <glyph glyph-name="uni066B" unicode="&#x66b;" horiz-adv-x="1112" 
d="M27 -273l540 1183h495l-540 -1183h-495z" />
    <glyph glyph-name="uni066C" unicode="&#x66c;" horiz-adv-x="685" 
d="M50 -266l31 18q31 18 74 44.5t82.5 55t58.5 50.5q-40 4 -89 19.5t-79 40.5q-28 23 -52.5 67.5t-24.5 115.5q0 107 82 185.5t194 78.5q76 0 146.5 -41t116 -119t45.5 -186q0 -40 -14 -111.5t-61 -157.5q-33 -56 -93.5 -109.5t-125 -97.5t-110.5 -70l-45 -26z" />
    <glyph glyph-name="uni066D" unicode="&#x66d;" horiz-adv-x="1126" 
d="M562 814l-70 -269l-427 309l245 140l-287 -8l162 500l208 -180l-92 262h522l-95 -262l211 177l161 -500l-259 11l215 -140l-422 -309z" />
    <glyph glyph-name="uni064B" unicode="&#x64b;" 
d="M-252 1566v150l504 187v-148zM-252 1808v149l504 187v-147z" />
    <glyph glyph-name="uni064D" unicode="&#x64d;" 
d="M-252 -826v150l504 187v-147zM-252 -584v149l504 188v-148z" />
    <glyph glyph-name="uni064E" unicode="&#x64e;" 
d="M-251 1566v150l504 187v-148z" />
    <glyph glyph-name="uni064F" unicode="&#x64f;" 
d="M-268 1562l-36 126q67 20 142.5 48.5t133.5 67.5q-70 26 -116.5 79.5t-46.5 116.5q0 32 15 65q26 54 79.5 89.5t112.5 35.5q34 0 67 -15q59 -30 84.5 -78t25.5 -104q0 -58 -21 -116t-55 -105q-46 -61 -119 -103t-144.5 -67.5t-113.5 -37.5zM15 2068q-22 0 -48.5 -12.5
t-39.5 -35.5q-2 -4 -2 -8q0 -23 38.5 -59t91.5 -47q16 33 16 78q0 29 -13 54.5t-43 29.5z" />
    <glyph glyph-name="uni064C" unicode="&#x64c;" 
d="M-213 1584l-62 85l8 16q12 24 21 46.5t9 42.5q0 15 -7 28q-19 17 -41 17q-18 0 -36.5 -8t-33.5 -19l-79 77q5 7 24 24.5t51 33t75 15.5h6q79 -8 120 -76q23 -50 23 -97q0 -11 -1 -24.5t-3 -23.5q43 9 86.5 28.5t69.5 43.5q-64 31 -105 83.5t-41 109.5q0 30 14 60
q27 54 79 89.5t107 35.5q36 0 65 -14q56 -28 80 -78t24 -108q0 -97 -63 -187q-62 -77 -146.5 -120t-154 -61t-89.5 -19zM71 2045q-19 0 -45.5 -12t-41.5 -32q10 -38 47 -64t74 -41q10 16 14.5 32t4.5 42q0 31 -14.5 53t-38.5 22z" />
    <glyph glyph-name="uni0650" unicode="&#x650;" 
d="M-252 -584v149l504 188v-148z" />
    <glyph glyph-name="uni0651" unicode="&#x651;" 
d="M-130 1644q-94 0 -148 53t-54 146v109h125v-109q0 -79 77 -75q8 0 23 4.5t27.5 20.5t12.5 50v109h126v-109q0 -79 78 -76q8 0 22 5.5t26 22t12 48.5q0 40 -21 110q-4 15 -8 32l118 40l8 -31q1 -2 1 -5q9 -29 18 -68t9 -78q0 -67 -28.5 -111.5t-71.5 -66.5t-87 -22
q-84 0 -140 46q-27 -22 -60 -33.5t-65 -11.5z" />
    <glyph glyph-name="uni0652" unicode="&#x652;" 
d="M-2 1654q-109 0 -174.5 62.5t-65.5 169.5q0 109 65.5 172.5t174.5 63.5q105 0 175.5 -63.5t70.5 -170.5q0 -106 -67.5 -170t-171.5 -64h-7zM-2 1791q42 0 72.5 24.5t30.5 70.5t-30.5 73t-72.5 27q-43 0 -74 -26.5t-31 -73.5q0 -49 28 -72t77 -23z" />
    <glyph glyph-name="uni0653" unicode="&#x653;" 
d="M-575 1570l10 35q18 68 51 133.5t95 118.5l1 1q106 89 318 89h554v-360h-554q-48 0 -71 -11t-32.5 -29t-15.5 -40l-9 -35z" />
    <glyph glyph-name="uni0654" unicode="&#x654;" 
d="M215 1639l-499 -164v160l115 37q-30 31 -47 68.5t-17 81.5q0 68 46.5 129.5t112.5 82.5q34 10 70 10q38 0 70.5 -10t63.5 -23l-32 -133q-60 17 -101 17q-14 0 -25 -3q-23 -7 -41.5 -25.5t-18.5 -42.5q0 -9 3 -19q7 -25 35.5 -41.5t79.5 -16.5q13 0 29.5 2.5t50.5 11.5
t97 30z" />
    <glyph glyph-name="uni0655" unicode="&#x655;" 
d="M258 -492l-499 -164v160l115 37q-30 31 -47 68.5t-17 81.5q0 68 46.5 129.5t112.5 82.5q34 10 70 10q38 0 70.5 -10t63.5 -23l-32 -133q-60 17 -101 17q-14 0 -25 -3q-23 -7 -41.5 -25.5t-18.5 -42.5q0 -9 3 -19q7 -25 35.5 -41.5t79.5 -16.5q13 0 29.5 2.5t50.5 11.5
t97 30z" />
    <glyph glyph-name="uni0670" unicode="&#x670;" 
d="M-76 1662v408h150v-408h-150z" />
    <glyph glyph-name="uni0656" unicode="&#x656;" 
d="M-76 -792v409h150v-409h-150z" />
    <glyph glyph-name="uni0615" unicode="&#x615;" 
d="M72 1189h-423v119h100q3 3 4.5 5t2 3t1.5 2q0 2 2 5t5 7q8 13 26 39v487h117v-331q35 36 77.5 58t92.5 22q47 0 91.5 -22t73.5 -70t29 -125q0 -74 -31 -117.5t-77 -62.5t-91 -19zM77 1486q-32 0 -64.5 -26.5t-63 -67t-58.5 -84.5h181q34 0 58.5 19t24.5 61q0 51 -21 74.5
t-57 23.5z" />
    <glyph glyph-name="wasla" 
d="M153 1557h-481l26 119h133l43 66l83 122q36 53 88 84t113 31q47 0 91.5 -24t73.5 -73.5t29 -125.5q0 -74 -31 -117.5t-77 -62.5t-91 -19zM158 1860q-32 0 -65 -28.5t-64 -70.5t-57 -85h181q34 0 56.5 19t22.5 61q0 102 -74 104z" />
    <glyph glyph-name="beh_dotless_alt.init" horiz-adv-x="1007" 
d="M-20 -98v556h458q-1 4 -10 50.5t-21 108t-21 109.5l-9 48l490 149l11 -57q11 -58 26 -140t29 -161q16 -84 16 -155q0 -36 -4 -68q-8 -64 -32 -136t-65 -125q-92 -110 -207 -149l-1 -1q-93 -29 -216 -29h-444z" />
    <glyph glyph-name="beh_dotless_alt.medi" horiz-adv-x="1038" 
d="M935 -98q-152 0 -279 69q-34 -17 -69 -30q-109 -39 -244 -39h-358v556h417v315h507v-315h144v-556h-118z" />
    <glyph glyph-name="onedot.below" 
d="M234 -296l-234 -233l-233 233l233 234z" />
    <glyph glyph-name="twodots.below" 
d="M-235 -74l220 -219l-220 -220l-219 220zM234 -74l220 -219l-220 -220l-219 220z" />
    <glyph glyph-name="alef_alt.isol" horiz-adv-x="708" 
d="M100 -98v1378h508v-1378h-508z" />
    <glyph glyph-name="alef_alt.fina" horiz-adv-x="697" 
d="M625 -99q-96 0 -169 22.5t-125 55.5t-85 66q-35 33 -68 85t-55.5 125t-22.5 170v231.5t0.5 361.5t0.5 254h506v-799q0 -7 3.5 -10.5t7.5 -4t5 -0.5h91v-557h-89z" />
    <glyph glyph-name="uni06D5" unicode="&#x6d5;" horiz-adv-x="1155" 
d="M908 888q46 -50 93.5 -113t80.5 -142.5t33 -178.5q0 -100 -28.5 -198.5t-91.5 -178.5t-166 -128.5t-251 -48.5q-132 0 -225 35t-154.5 92.5t-96 126t-48.5 137t-14 124.5q0 83 30.5 162.5t70.5 142.5t71 101.5t34 40.5q-7 8 -17.5 19.5l-21 23t-17.5 20.5l-7 8l377 336
l42 -47q42 -46 101.5 -111t116 -127t88.5 -96zM572 349q49 0 79 30.5t30 85.5q0 18 -17.5 44t-40 50.5t-39.5 41.5l-17 17l-16 -16q-16 -15 -37 -38.5t-37 -50t-16 -48.5q0 -55 31.5 -85.5t79.5 -30.5z" />
    <glyph glyph-name="heh_ae.fina" horiz-adv-x="1413" 
d="M1427 458v-556h-59q-310 0 -483 163q-83 -39 -160 -50t-149 -11q-176 0 -309 97q-152 114 -199 339q-13 57 -13 130q0 24 3.5 88.5t63.5 175.5q116 204 408 297l-14 60l495 113l11 -47q50 -216 80 -348q7 -33 14 -64q20 -92 37 -163.5t39 -155.5q18 -68 140 -68h95z
M652 456q59 36 59 100q0 2 -1 36.5t-22 105.5q-5 19 -10 37q-80 -35 -116.5 -52.5t-52.5 -33.5q-37 -40 -37 -88q0 -2 0.5 -27.5t30.5 -59.5q18 -19 39 -27t42 -8t39 5.5t29 11.5z" />
    <glyph glyph-name="uni06C2" unicode="&#x6c2;" horiz-adv-x="1155" 
d="M908 888q46 -50 93.5 -113t80.5 -142.5t33 -178.5q0 -100 -28.5 -198.5t-91.5 -178.5t-166 -128.5t-251 -48.5q-132 0 -225 35t-154.5 92.5t-96 126t-48.5 137t-14 124.5q0 83 30.5 162.5t70.5 142.5t71 101.5t34 40.5q-7 8 -17.5 19.5l-21 23t-17.5 20.5l-7 8l377 336
l42 -47q42 -46 101.5 -111t116 -127t88.5 -96zM572 349q49 0 79 30.5t30 85.5q0 18 -17.5 44t-40 50.5t-39.5 41.5l-17 17l-16 -16q-16 -15 -37 -38.5t-37 -50t-16 -48.5q0 -55 31.5 -85.5t79.5 -30.5zM772 1441l-499 -164v160l115 37q-30 31 -47 68.5t-17 81.5
q0 68 46.5 129.5t112.5 82.5q34 10 70 10q38 0 70.5 -10t63.5 -23l-32 -133q-60 17 -101 17q-14 0 -25 -3q-23 -7 -41.5 -25.5t-18.5 -42.5q0 -9 3 -19q7 -25 35.5 -41.5t79.5 -16.5q13 0 29.5 2.5t50.5 11.5t97 30z" />
    <glyph glyph-name="uni06C3" unicode="&#x6c3;" horiz-adv-x="1155" 
d="M908 888q46 -50 93.5 -113t80.5 -142.5t33 -178.5q0 -100 -28.5 -198.5t-91.5 -178.5t-166 -128.5t-251 -48.5q-132 0 -225 35t-154.5 92.5t-96 126t-48.5 137t-14 124.5q0 83 30.5 162.5t70.5 142.5t71 101.5t34 40.5q-7 8 -17.5 19.5l-21 23t-17.5 20.5l-7 8l377 336
l42 -47q42 -46 101.5 -111t116 -127t88.5 -96zM572 349q49 0 79 30.5t30 85.5q0 18 -17.5 44t-40 50.5t-39.5 41.5l-17 17l-16 -16q-16 -15 -37 -38.5t-37 -50t-16 -48.5q0 -55 31.5 -85.5t79.5 -30.5zM540 1483l-220 -219l-219 219l219 220zM1009 1483l-220 -219l-219 219
l219 220z" />
    <glyph glyph-name="uni06F0" unicode="&#x6f0;" horiz-adv-x="1196" 
d="M986 967q160 -168 160 -386t-160 -387l-2 -2q-168 -159 -386 -159t-386 159l-2 2q-160 169 -160 387t160 386l2 2q168 159 386 159t386 -159zM698 481q41 41 41 100q0 58 -41 100q-41 41 -100 41q-58 0 -100 -41q-41 -42 -41 -100q0 -59 41 -100q42 -42 100 -42
q59 0 100 42z" />
    <glyph glyph-name="uni06F1" unicode="&#x6f1;" horiz-adv-x="775" 
d="M192 -97v49q0 71 0.5 116.5t1.5 85.5v3q2 90 2 191q0 75 -1 157q-3 190 -31.5 404.5t-99.5 441.5l-14 47l482 152l15 -46q83 -267 116.5 -515t36.5 -402.5t3 -240.5q0 -107 -3 -199v-3q0 -38 -1 -81.5t-1 -110.5v-49h-506z" />
    <glyph glyph-name="uni06F2" unicode="&#x6f2;" horiz-adv-x="1369" 
d="M211 -97v193q1 45 1 90q0 246 -23 517q-27 320 -125 642l-14 46l482 152l9 -28q8 -28 20.5 -69.5t24.5 -83t20 -70.5q14 -56 36 -109.5t53.5 -89.5t76.5 -36q37 0 46 28.5t9 59.5q0 14 -2 30q-5 49 -17.5 98.5t-23.5 83.5l-12 34l460 158l6 -20q6 -21 14.5 -50t16.5 -58
t13 -47v-1q37 -158 37 -264q0 -299 -141 -445q-153 -159 -377 -159q-45 0 -90 7q8 -163 8 -312q0 -54 -1 -107v-190h-507z" />
    <glyph glyph-name="uni06F3" unicode="&#x6f3;" horiz-adv-x="1733" 
d="M208 -101v49v99t1 66v12q1 46 1 96q0 132 -6 293q-8 220 -52 474q-11 38 -22.5 93.5t-20.5 104.5q-1 7 -2 10q-21 79 -42 143l-15 46l488 155l12 -52q12 -52 27 -120t27.5 -122.5t14.5 -64.5q8 -39 15 -73q13 -68 26 -106.5t35 -38.5h3q20 3 20.5 20.5t0.5 20.5
q0 29 -9 72q-15 78 -27.5 149.5t-19.5 117.5l-8 46l453 81l8 -61q8 -61 18.5 -143.5t20.5 -154.5q2 -13 4 -27q5 -47 14.5 -84t32.5 -37h1q17 3 21.5 21.5t4.5 37.5q0 8 -1 16q-2 28 -6 51q0 3 -1 5q-8 65 -18 144t-17 139l-7 60l445 114l11 -48q1 -4 11.5 -67t21.5 -153.5
t11 -168.5q0 -66 -7 -139.5t-29.5 -146.5t-68.5 -138q-61 -87 -154 -137q-101 -51 -217 -51q-148 0 -265 71q-99 -66 -230 -74q5 -113 5 -236q0 -76 -2 -156v-208h-507z" />
    <glyph glyph-name="uni06F9" unicode="&#x6f9;" horiz-adv-x="1202" 
d="M1165 84l17 -45l-464 -177l-17 45q-50 143 -79 403q-10 89 -11 165q0 10 -1 20h-22q-166 0 -286 74h-1q-73 48 -119.5 126.5t-69 171t-22.5 176.5q0 65 19 154t64 174q134 233 403 233q82 0 147 -18.5t108 -46t76 -55.5q97 -84 146 -213q47 -123 47 -290
q0 -319 13.5 -508.5t28.5 -280t23 -108.5zM590 977h73v44q-1 15 -1 26.5v14.5q0 25 -6.5 50.5t-26 42.5t-59.5 17t-60 -17.5t-26.5 -43.5t-6.5 -49q0 -27 8.5 -46t33 -29t71.5 -10z" />
    <glyph glyph-name="uni06F7" unicode="&#x6f7;" horiz-adv-x="1669" 
d="M580 -99v48q0 219 -142 603q-158 410 -357 653l-31 37l389 326l31 -37q101 -125 205.5 -378.5t157.5 -513.5q54 260 161.5 515.5t204.5 375.5l31 38l389 -326l-31 -37q-200 -245 -357 -653q-144 -382 -144 -603v-48h-507z" />
    <glyph glyph-name="uni06F8" unicode="&#x6f8;" horiz-adv-x="1669" 
d="M580 1568h507v-49q0 -220 144 -602q157 -408 357 -654l31 -37l-389 -325l-31 37q-97 121 -204.5 376.5t-161.5 514.5q-53 -259 -157.5 -512.5t-205.5 -378.5l-31 -37l-389 325l31 37q199 244 357 654q142 384 142 602v49z" />
    <glyph glyph-name="uni06F4.urdu" horiz-adv-x="1399" 
d="M514 -69q-62 232 -166 400q-17 30 -37 60q-58 90 -114 200.5t-92 261.5q-15 70 -15 135q0 180 112 326q60 77 145 121q94 47 197 47q27 0 89.5 -6.5t134.5 -32.5q81 -30 131 -80q36 72 91.5 121t101.5 75l45 25l212 -434q-74 -48 -113.5 -123.5t-39.5 -151.5q0 -10 1 -19
l4 -42l-407 -88l-16 38q-49 114 -118 178.5t-110 79.5q25 -80 137 -302q83 -165 164.5 -344t118.5 -315l13 -47l-456 -130z" />
    <glyph glyph-name="uni06F7.urdu" horiz-adv-x="1158" 
d="M583 -102q-204 0 -353 47l-173 56l-3 182v19q0 198 81 377q76 166 234 385q107 150 200.5 258t153.5 166l60 58l325 -366l-100 -114q-101 -114 -223 -268t-199 -288q120 3 239 14.5t166 20.5l54 12l41 -502l-43 -8h-1q-68 -18 -272 -40q-99 -9 -187 -9z" />
    <glyph glyph-name="Ghunna_above" 
d="M10 1603h-48q-94 0 -156 66.5t-62 181.5q0 58 12 107t33 99l103 -36q-19 -45 -26.5 -76.5t-7.5 -87.5q0 -70 34.5 -110t88.5 -40h24q75 0 105 35.5t30 102.5v205h110v-199q0 -120 -55.5 -184t-184.5 -64zM-46 1950v318h110v-318h-110z" />
    <glyph glyph-name="uni0651064B" 
d="M-130 1594q-94 0 -148 53t-54 146v109h125v-109q0 -79 77 -75q8 0 23 4.5t27.5 20.5t12.5 50v109h126v-109q0 -79 78 -76q8 0 22 5.5t26 22t12 48.5q0 40 -21 110q-4 15 -8 32l118 40l8 -31q1 -2 1 -5q9 -29 18 -68t9 -78q0 -67 -28.5 -111.5t-71.5 -66.5t-87 -22
q-84 0 -140 46q-27 -22 -60 -33.5t-65 -11.5zM-289 1997v150l504 187v-148zM-289 2239v149l504 187v-147z" />
    <glyph glyph-name="uni0654064B" 
d="M-282 2149v150l504 187v-148zM-282 2391v149l504 187v-147zM215 1762l-499 -164v160l115 37q-30 31 -47 68.5t-17 81.5q0 68 46.5 129.5t112.5 82.5q34 10 70 10q38 0 70.5 -10t63.5 -23l-32 -133q-60 17 -101 17q-14 0 -25 -3q-23 -7 -41.5 -25.5t-18.5 -42.5
q0 -9 3 -19q7 -25 35.5 -41.5t79.5 -16.5q13 0 29.5 2.5t50.5 11.5t97 30z" />
    <glyph glyph-name="uni0654064E" 
d="M-281 2135v150l504 187v-148zM231 1761l-499 -164v160l115 37q-30 31 -47 68.5t-17 81.5q0 68 46.5 129.5t112.5 82.5q34 10 70 10q38 0 70.5 -10t63.5 -23l-32 -133q-60 17 -101 17q-14 0 -25 -3q-23 -7 -41.5 -25.5t-18.5 -42.5q0 -9 3 -19q7 -25 35.5 -41.5
t79.5 -16.5q13 0 29.5 2.5t50.5 11.5t97 30z" />
    <glyph glyph-name="uni0654064C" 
d="M-186 2206l-62 85l8 16q12 24 21 46.5t9 42.5q0 15 -7 28q-19 17 -41 17q-18 0 -36.5 -8t-33.5 -19l-79 77q5 7 24 24.5t51 33t75 15.5h6q79 -8 120 -76q23 -50 23 -97q0 -11 -1 -24.5t-3 -23.5q43 9 86.5 28.5t69.5 43.5q-64 31 -105 83.5t-41 109.5q0 30 14 60
q27 54 79 89.5t107 35.5q36 0 65 -14q56 -28 80 -78t24 -108q0 -97 -63 -187q-62 -77 -146.5 -120t-154 -61t-89.5 -19zM98 2667q-19 0 -45.5 -12t-41.5 -32q10 -38 47 -64t74 -41q10 16 14.5 32t4.5 42q0 31 -14.5 53t-38.5 22zM245 1759l-499 -164v160l115 37
q-30 31 -47 68.5t-17 81.5q0 68 46.5 129.5t112.5 82.5q34 10 70 10q38 0 70.5 -10t63.5 -23l-32 -133q-60 17 -101 17q-14 0 -25 -3q-23 -7 -41.5 -25.5t-18.5 -42.5q0 -9 3 -19q7 -25 35.5 -41.5t79.5 -16.5q13 0 29.5 2.5t50.5 11.5t97 30z" />
    <glyph glyph-name="uni0654064F" 
d="M-248 2205l-36 126q67 20 142.5 48.5t133.5 67.5q-70 26 -116.5 79.5t-46.5 116.5q0 32 15 65q26 54 79.5 89.5t112.5 35.5q34 0 67 -15q59 -30 84.5 -78t25.5 -104q0 -58 -21 -116t-55 -105q-46 -61 -119 -103t-144.5 -67.5t-113.5 -37.5zM35 2711q-22 0 -48.5 -12.5
t-39.5 -35.5q-2 -4 -2 -8q0 -23 38.5 -59t91.5 -47q16 33 16 78q0 29 -13 54.5t-43 29.5zM235 1759l-499 -164v160l115 37q-30 31 -47 68.5t-17 81.5q0 68 46.5 129.5t112.5 82.5q34 10 70 10q38 0 70.5 -10t63.5 -23l-32 -133q-60 17 -101 17q-14 0 -25 -3
q-23 -7 -41.5 -25.5t-18.5 -42.5q0 -9 3 -19q7 -25 35.5 -41.5t79.5 -16.5q13 0 29.5 2.5t50.5 11.5t97 30z" />
    <glyph glyph-name="uni06540652" 
d="M-15 2259q-109 0 -174.5 62.5t-65.5 169.5q0 109 65.5 172.5t174.5 63.5q105 0 175.5 -63.5t70.5 -170.5q0 -106 -67.5 -170t-171.5 -64h-7zM-15 2396q42 0 72.5 24.5t30.5 70.5t-30.5 73t-72.5 27q-43 0 -74 -26.5t-31 -73.5q0 -49 28 -72t77 -23zM225 1759l-499 -164
v160l115 37q-30 31 -47 68.5t-17 81.5q0 68 46.5 129.5t112.5 82.5q34 10 70 10q38 0 70.5 -10t63.5 -23l-32 -133q-60 17 -101 17q-14 0 -25 -3q-23 -7 -41.5 -25.5t-18.5 -42.5q0 -9 3 -19q7 -25 35.5 -41.5t79.5 -16.5q13 0 29.5 2.5t50.5 11.5t97 30z" />
    <glyph glyph-name="uni0655064D" 
d="M-248 -1295v150l504 187v-147zM-248 -1053v149l504 188v-148zM258 -642l-499 -164v160l115 37q-30 31 -47 68.5t-17 81.5q0 68 46.5 129.5t112.5 82.5q34 10 70 10q38 0 70.5 -10t63.5 -23l-32 -133q-60 17 -101 17q-14 0 -25 -3q-23 -7 -41.5 -25.5t-18.5 -42.5
q0 -9 3 -19q7 -25 35.5 -41.5t79.5 -16.5q13 0 29.5 2.5t50.5 11.5t97 30z" />
    <glyph glyph-name="uni06550650" 
d="M-252 -1055v149l504 188v-148zM258 -642l-499 -164v160l115 37q-30 31 -47 68.5t-17 81.5q0 68 46.5 129.5t112.5 82.5q34 10 70 10q38 0 70.5 -10t63.5 -23l-32 -133q-60 17 -101 17q-14 0 -25 -3q-23 -7 -41.5 -25.5t-18.5 -42.5q0 -9 3 -19q7 -25 35.5 -41.5
t79.5 -16.5q13 0 29.5 2.5t50.5 11.5t97 30z" />
    <glyph glyph-name="uni0692" unicode="&#x692;" horiz-adv-x="956" 
d="M0 -636v554h146q146 0 200 57q52 65 52 213v586h507v-586q0 -183 -48.5 -343.5t-131.5 -251.5q-103 -118 -256 -175q-142 -54 -323 -54h-146zM944 1311l-231 -413h-131l-234 413h171l126 -253l130 253h169z" />
    <glyph glyph-name="uni0695" unicode="&#x695;" horiz-adv-x="956" 
d="M0 -636v554h146q146 0 200 57q52 65 52 213v586h507v-586q0 -183 -48.5 -343.5t-131.5 -251.5q-103 -118 -256 -175q-142 -54 -323 -54h-146zM647 -679l-231 -413h-131l-234 413h171l126 -253l130 253h169z" />
    <glyph glyph-name="uni06A8" unicode="&#x6a8;" horiz-adv-x="1843" 
d="M1206 405h155v96q0 47 -34 79q-34 31 -84 31q-49 0 -82 -32t-33 -78q0 -25 6 -47q5 -22 22 -35q16 -14 50 -14zM783 -636q-211 0 -373 77.5t-257 223.5l-1 1q-80 135 -96 253q-10 73 -10 142q0 43 4 85q14 235 144 523l20 44l462 -208l-20 -44q-92 -207 -101 -346
q-1 -13 -1 -24q0 -69 25 -107q51 -69 204 -69h15v1h73q73 1 169 1h166h161q2 0 5.5 2.5t3.5 7.5t-3.5 7.5t-5.5 2.5q-85 0 -174.5 8t-173 33.5t-150 79t-106 143t-39.5 225.5q0 175 50 293.5t128 190t168 102.5t170 31q235 0 405 -177v-1h1q157 -179 157 -439v-374
q-1 -148 -44 -257q-42 -108 -107 -183q-63 -73 -128 -123l-2 -2q-40 -27 -107 -57q-68 -30 -191 -49q-105 -17 -267 -17h-174zM1451 1620l-201 -200l-200 200l200 201zM1205 1310l-220 -219l-219 219l219 220zM1724 1310l-220 -219l-219 219l219 220z" />
    <glyph glyph-name="uni06AA" unicode="&#x6aa;" horiz-adv-x="2552" 
d="M551 458h613l923 1q-4 5 -8 12q-9 15 -22 30t-34 26.5t-55 11.5h-664.5t-323.5 1h-23l-233 513v20q56 124 195 226t314.5 180t340.5 131.5t275 81.5q102 25 109 27h1l150 -448h-1q-6 -2 -273 -63t-599 -229l662 34q229 -8 367 -130.5t177 -259.5t39 -234q0 -75 -17 -149
q-38 -169 -161 -271q-33 -22 -76 -40q-65 -27 -153 -27h-1384q-62 1 -110 2q-89 3 -152 13q-193 31 -295 188l-1 1l-1 2q-81 150 -81 346q0 46 5 96v3q25 156 60 263l18 55l481 -142v-1q-2 -7 -9 -39q-10 -41 -22.5 -94t-21.5 -92.5t-10 -44.5z" />
    <glyph glyph-name="uni06B5" unicode="&#x6b5;" horiz-adv-x="1569" 
d="M743 -636q-188 0 -335.5 75.5t-238.5 218.5q-40 62 -62 129.5t-32 108.5v1q-21 88 -21 177q0 18 1 36q8 219 123 459l20 44l458 -215l-20 -44q-70 -152 -75 -263v-10q0 -66 24 -104q28 -39 76 -50.5t82 -11.5q54 0 106 5t80 22q13 8 23.5 32.5t10.5 86.5v1426h506v-1426
q0 -343 -153 -506q-97 -102 -254 -150q-130 -41 -319 -41zM1532 2019l-231 -413h-131l-234 413h171l126 -253l130 253h169z" />
    <glyph glyph-name="uni06440675.isol" horiz-adv-x="1401" 
d="M85 -97v555h507q86 0 122 11q42 12 53 33q19 30 22.5 93.5t3.5 161.5v733h508v-733q0 -85 -4.5 -186t-28.5 -202.5t-80 -190.5q-95 -145 -261 -214q-147 -61 -362 -61h-480zM70 1442l506 37l67 -885l-506 -39zM573 1661l-499 -164v160l115 37q-30 31 -47 68.5t-17 81.5
q0 68 46.5 129.5t112.5 82.5q34 10 70 10q38 0 70.5 -10t63.5 -23l-32 -133q-60 17 -101 17q-14 0 -25 -3q-23 -7 -41.5 -25.5t-18.5 -42.5q0 -9 3 -19q7 -25 35.5 -41.5t79.5 -16.5q13 0 29.5 2.5t50.5 11.5t97 30z" />
    <glyph glyph-name="uni06440675.fina" horiz-adv-x="1399" 
d="M642 594l-506 -39l-66 887l506 37zM1351 458h63v-556h-80q-76 0 -137.5 15t-104.5 35t-66 35l-23 15h-1q-36 -21 -76 -38q-146 -61 -361 -61h-480v555h480q102 0 146 11.5t56 32.5q19 30 22.5 93.5t3.5 161.5v733h508v-733q0 -52 -1.5 -110t-6.5 -118q0 -30 11.5 -50.5
t46.5 -20.5zM575 1663l-499 -164v160l115 37q-30 31 -47 68.5t-17 81.5q0 68 46.5 129.5t112.5 82.5q34 10 70 10q38 0 70.5 -10t63.5 -23l-32 -133q-60 17 -101 17q-14 0 -25 -3q-23 -7 -41.5 -25.5t-18.5 -42.5q0 -9 3 -19q7 -25 35.5 -41.5t79.5 -16.5q13 0 29.5 2.5
t50.5 11.5t97 30z" />
    <glyph glyph-name="uni06B50627.isol" horiz-adv-x="1401" 
d="M85 -97v555h507q86 0 122 11q42 12 53 33q19 30 22.5 93.5t3.5 161.5v733h508v-733q0 -85 -4.5 -186t-28.5 -202.5t-80 -190.5q-95 -145 -261 -214q-147 -61 -362 -61h-480zM70 1442l506 37l67 -885l-506 -39zM1345 1985l-231 -413h-131l-234 413h171l126 -253l130 253
h169z" />
    <glyph glyph-name="uni06B50627.fina" horiz-adv-x="1399" 
d="M642 594l-506 -39l-66 887l506 37zM1351 458h63v-556h-80q-76 0 -137.5 15t-104.5 35t-66 35l-23 15h-1q-36 -21 -76 -38q-146 -61 -361 -61h-480v555h480q102 0 146 11.5t56 32.5q19 30 22.5 93.5t3.5 161.5v733h508v-733q0 -52 -1.5 -110t-6.5 -118q0 -30 11.5 -50.5
t46.5 -20.5zM1355 1985l-231 -413h-131l-234 413h171l126 -253l130 253h169z" />
    <glyph glyph-name="uni065A" unicode="&#x65a;" 
d="M130 1426h169l-231 -413h-131l-234 413h171l126 -253z" />
    <glyph glyph-name="uni065B" unicode="&#x65b;" 
d="M-131 1067h-147l231 415h90l233 -415h-150l-126 255z" />
    <glyph glyph-name="smallv.arabic" 
d="M299 1696l-231 -413h-131l-234 413h171l126 -253l130 253h169z" />
    <glyph glyph-name="circumflex.arabic" 
d="M-278 1284l231 415h90l233 -415h-150l-126 255l-131 -255h-147z" />
    <glyph glyph-name="uni06A4" unicode="&#x6a4;" horiz-adv-x="2174" 
d="M1682 446v96q0 20 -10 45.5t-35.5 45t-72.5 19.5q-16 0 -43.5 -9t-49.5 -33t-22 -68q0 -59 22.5 -77t68.5 -18q17 0 62 -1h80zM941 -98h-119q-136 0 -223 2q-89 3 -152 13q-193 31 -295 188l-1 1l-1 2q-81 150 -81 346q0 46 5 96v3q25 156 60 263l18 55l481 -142v-1
q-2 -7 -9 -39q-10 -41 -22.5 -94t-21.5 -92.5t-10 -44.5h464q-1 29 -1 56q0 176 51 296q52 120 135 192q81 70 174 100q90 29 168 29q235 0 405 -177v-1h1q157 -180 157 -439v-71q0 -155 -77 -278q-78 -123 -224 -193q-145 -69 -347 -69zM1772 1709l-201 -200l-200 200
l200 201zM1526 1399l-220 -219l-219 219l219 220zM2045 1399l-220 -219l-219 219l219 220z" />
    <glyph glyph-name="uni06C6" unicode="&#x6c6;" horiz-adv-x="1209" 
d="M560 405h155v96q0 47 -34 79q-34 31 -84 31q-49 0 -82 -32t-33 -78q0 -25 5 -47q6 -22 22 -35q17 -14 51 -14zM594 1043q234 0 404 -177v-1h1q157 -179 157 -439v-374q-1 -148 -44 -257q-42 -108 -107 -183q-63 -73 -128 -123l-2 -2q-39 -27 -106 -57q-68 -30 -191 -49
q-105 -17 -268 -17h-159v552h73q73 1 169 1h166h161q2 0 6 2.5t4 7.5t-4 7.5t-6 2.5q-84 0 -174 8t-173.5 33.5t-149.5 79t-105.5 143t-39.5 225.5q0 175 49.5 293.5t127.5 190t168 102.5t171 31zM944 1536l-231 -413h-131l-234 413h171l126 -253l130 253h169z" />
    <glyph glyph-name="uni06CE" unicode="&#x6ce;" horiz-adv-x="1831" 
d="M750 -636q-139 0 -241.5 37t-174 91.5t-116.5 110.5q-80 98 -124 223.5t-44 256.5q0 138 24 253t61.5 213.5t81.5 185.5l22 43l454 -222l-21 -44q-115 -229 -115 -389q0 -86 24 -131t68 -61t104 -16h396q47 0 77 6.5t47 15.5q-69 18 -184 44q-135 31 -241 58l-26 7l-8 26
q-4 7 -20 79t-22 181q-1 23 -1 46q0 87 20 180q6 34 46 125t136 194q211 208 532 208q60 0 118.5 -11t110.5 -24l47 -13l-130 -494l-49 17q-69 24 -127 24q-161 0 -211 -160q64 -18 118 -32q117 -30 187 -52q189 -62 189 -284v-2q-3 -394 -239 -569q-69 -50 -143 -76.5
t-144.5 -35.5t-128.5 -9h-353zM914 1222l-231 -413h-131l-234 413h171l126 -253l130 253h169z" />
    <glyph glyph-name="uni060D" unicode="&#x60d;" horiz-adv-x="888" 
d="M903 409v-507h-86q-108 0 -185 -109q-78 -110 -179 -292l-403 259q240 388 351 512q124 137 359 137h143z" />
    <glyph glyph-name="patah.wide" horiz-adv-x="729" 
d="M729 163h-729v410h729v-410z" />
    <glyph glyph-name="uniFD3E" unicode="&#xfd3e;" horiz-adv-x="827" 
d="M385 -310q-5 3 -54.5 70.5t-113.5 189.5q-39 75 -77 178t-64 229t-26 270q0 136 25.5 259t63 226t75.5 180q63 126 111.5 196.5t53.5 74.5l31 38l347 -281l-30 -38q-3 -2 -37 -52t-78.5 -139.5t-79 -208t-34.5 -255.5q0 -144 33.5 -261.5t77 -202t76.5 -130.5t35 -47
l33 -36l-335 -297z" />
    <glyph glyph-name="uniFD3F" unicode="&#xfd3f;" horiz-adv-x="827" 
d="M442 -310l-32 -37l-335 297l32 36q3 1 36 47t76.5 130.5t77 202t33.5 261.5q0 137 -34.5 255.5t-79 208t-79 139.5t-36.5 52l-31 38l348 281l31 -38q5 -4 53 -74.5t111 -196.5q39 -77 76.5 -180t62.5 -226t25 -259q0 -144 -25.5 -270t-63.5 -229t-77 -178
q-65 -122 -114.5 -189.5t-54.5 -70.5z" />
    <glyph glyph-name="jim2" horiz-adv-x="1610" 
d="M804 -636q-84 0 -165.5 6t-156 27.5t-140.5 66.5q-66 51 -119.5 172t-93.5 271.5t-65 287.5q-14 70 -14 134q0 45 7 87q19 100 108 179.5t274 137.5l576 178l-69 17q-70 17 -163 41.5t-170 48.5l-54 -101l-450 117q54 206 202 324h1q133 100 289 100q38 0 69 -4
q47 -5 165 -48.5t351 -147.5q76 -35 147 -67.5t118 -54.5l46 -22l62 -488l-114 -43q-115 -44 -280 -107.5t-329 -127t-273 -105.5l95 -325h753v-554h-607z" />
    <glyph glyph-name="jim" horiz-adv-x="1749" 
d="M782 -807q-116 0 -209 13q-102 12 -183 61q-82 51 -144 156l-1 1q-22 38 -60 143q-39 103 -74 221q-37 121 -50 212q-11 65 -11 122q0 146 68 239q90 127 345 212q144 46 319 83q125 27 199 49q-22 5 -85 16.5t-136.5 24.5t-129.5 22t-64 10q-1 -1 -6.5 -11.5t-12.5 -24
t-13 -23.5l-5 -11l-476 120q55 208 201 324l2 1q134 100 289 100q96 0 239 -38q139 -38 289 -90q150 -53 286 -102v-1q70 -26 131 -48l28 -10l64 -492l-2 -1q48 -14 146 -14h39v-555h-118q-206 0 -357 96q-136 87 -181 284l-30 -12q-116 -46 -269 -108t-250 -101
q18 -63 46 -158.5t46 -154.5h786v-555h-656z" />
    <glyph glyph-name="hah_alt.isol" horiz-adv-x="1670" 
d="M805 -636q-85 0 -166.5 5.5t-156 27t-140.5 66.5q-66 51 -119.5 172t-93.5 271.5t-65 288.5q-14 68 -14 130q0 47 13 118.5t102 151t274 137.5l577 178l-70 18q-70 17 -162.5 41t-170.5 48l-54 -101l-450 117q54 206 202 324l1 1q133 100 290 100q37 0 68 -5
q47 -5 165 -48t352 -148q75 -34 146 -67t118 -55l47 -22l61 -487l-115 -44q-114 -44 -279 -107.5t-329 -126.5t-273 -106l95 -325h238v-553h-91zM1387 -141l-201 -201l-200 201l200 200zM1176 139l-220 -220l-219 220l219 219zM1647 139l-220 -220l-219 220l219 219z" />
    <glyph glyph-name="hah_alt.fina" horiz-adv-x="1899" 
d="M1402 -529l-201 -201l-200 201l200 200zM1190 -249l-220 -220l-219 220l219 219zM1662 -249l-220 -220l-219 220l219 219zM1865 458h49v-556h-49q-205 0 -356 96q-91 58 -142 166q-185 -71 -419 -161t-385 -149l95 -325h239v-553h-92q-85 0 -166.5 5.5t-156 27
t-139.5 66.5q-67 51 -120 172t-93 271.5t-66 288.5q-14 68 -14 130q0 47 13.5 118.5t102 151t273.5 137.5l577 178l-70 17q-70 17 -162.5 41.5t-170.5 48.5l-54 -101l-449 117q53 206 202 324v1q134 100 290 100q38 0 69 -5q46 -5 164 -48.5t352 -147.5q76 -35 146.5 -67.5
t117.5 -54.5l47 -22l26 -205q67 -25 155.5 -43.5t185.5 -18.5z" />
    <glyph glyph-name="chedots" 
d="M1 -523l161 -160l-161 -160l-160 160zM-187 -259l176 -176l-176 -176l-176 176zM188 -259l176 -176l-176 -176l-175 176z" />
    <glyph glyph-name="jimdot" 
d="M200 -329l-200 -200l-200 200l200 200z" />
    <glyph glyph-name="diagonal" horiz-adv-x="957" 
d="M65 1289l13 142l739 349l52 -112z" />
    <glyph glyph-name="saryaa" 
d="M106 1861q47 0 96 -13l-36 -138q-29 8 -59 8q-21 0 -40.5 -5.5t-36.5 -19.5q-27 -23 -37 -65q94 -16 127 -24q36 -8 53 -21q37 -26 37 -70q0 -19 -5 -57.5t-32 -80.5q-64 -91 -217 -91h-109v143h109q22 0 53 5.5t46 24.5q5 7 6 13q-44 9 -119 21l-36 6l-55 9l-5 56
q-1 14 -1 28q0 128 93 213q50 42 117 54q26 4 51 4z" />
    <glyph glyph-name="uni25CC" unicode="&#x25cc;" horiz-adv-x="1217" 
d="M980 918q0 -50 -48 -50q-52 0 -52 50t52 50q48 0 48 -50zM832 1016q0 -49 -48 -49q-52 0 -52 49q0 51 52 51q48 0 48 -51zM1079 770q0 -51 -51 -51q-49 0 -49 51q0 49 51 49q49 0 49 -49zM1115 596q0 -50 -48 -50q-52 0 -52 50t52 50q48 0 48 -50zM658 1053
q0 -51 -50 -51t-50 51q0 49 50 49t50 -49zM485 1016q0 -49 -51 -49q-49 0 -49 49q0 51 49 51q51 0 51 -51zM1079 422q0 -49 -51 -49q-49 0 -49 49q0 51 49 51q51 0 51 -51zM337 918q0 -50 -50 -50t-50 47q0 53 50 53t50 -50zM980 272q0 -49 -48 -49q-52 0 -52 49q0 51 52 51
q48 0 48 -51zM832 174q0 -48 -48 -48q-52 0 -52 48q0 52 52 52q48 0 48 -52zM238 770q0 -51 -48 -51q-52 0 -52 51q0 49 50 49t50 -49zM202 592q0 -46 -48 -46q-52 0 -52 50t52 50q48 0 48 -46v-8zM658 141q0 -51 -50 -51t-50 51q0 49 50 49t50 -49zM238 422q0 -49 -50 -49
t-50 49q0 51 50 51t50 -51zM485 178q0 -52 -51 -52q-49 0 -49 48q0 52 49 52q51 0 51 -48zM337 272q0 -49 -50 -49t-50 49q0 51 50 51t50 -51z" />
    <glyph glyph-name="ZWSP" unicode="&#x200b;" 
 />
    <glyph glyph-name="uni200C" unicode="&#x200c;" 
d="M36 1667v-1484h-72v1484h72z" />
    <glyph glyph-name="uni200D" unicode="&#x200d;" 
d="M36 183h-72v1185l-134 -136l-49 49l171 169l-171 168l49 49l170 -171l170 171l49 -49l-171 -168l171 -169l-49 -49l-134 136v-1185z" />
    <glyph glyph-name="uni200E" unicode="&#x200e;" 
d="M430 1452l-217 -214l-49 49l137 130h-266v-1234h-71v1305h337l-137 130l49 49z" />
    <glyph glyph-name="uni200F" unicode="&#x200f;" 
d="M35 183h-71v1234h-266l137 -130l-49 -49l-217 214l217 215l49 -49l-137 -130h337v-1305z" />
    <glyph glyph-name="thin_hairSpace" unicode="&#x2009;" 
 />
    <glyph glyph-name="thin_hairSpace" unicode="&#x200a;" 
 />
    <glyph glyph-name="word_joiner" unicode="&#x2060;" 
 />
    <glyph glyph-name="line_seperator" unicode="&#x2028;" 
 />
    <glyph glyph-name="paragraph_seperator" unicode="&#x2029;" 
 />
    <glyph glyph-name="exclam" unicode="!" horiz-adv-x="687" 
d="M601 -101l-258 -257l-257 257l257 258zM112 280l-62 1278h587l-63 -1278h-462z" />
    <glyph glyph-name="quotedbl" unicode="&#x22;" horiz-adv-x="1076" 
d="M103 880l-33 660h418l-33 -660h-352zM620 880l-33 660h418l-33 -660h-352z" />
    <glyph glyph-name="numbersign" unicode="#" horiz-adv-x="1628" 
d="M1599 909h-308l-33 -278h267v-330h-308l-38 -301h-352l38 301h-218l-38 -301h-352l38 301h-266v330h308l33 278h-267v330h308l38 301h352l-38 -301h218l38 301h352l-38 -301h266v-330zM906 631l33 278h-217l-33 -278h217z" />
    <glyph glyph-name="dollar" unicode="$" horiz-adv-x="1445" 
d="M1417 484q0 -119 -57 -222.5t-171 -177t-285 -104.5v-244h-310v233q-349 26 -565 154l167 379q254 -141 508 -141q111 0 155.5 22t44.5 61q0 36 -34.5 58t-93.5 37.5t-132 30.5q-76 15 -157.5 35.5t-158.5 53t-139 84t-99 128t-37 185.5q0 124 60 230.5t180.5 179
t300.5 98.5v240h310v-235q252 -23 447 -128l-156 -376q-228 114 -429 114q-76 0 -120 -13t-62.5 -35t-18.5 -49q0 -33 34.5 -54t92 -35.5t129.5 -28.5q76 -14 158 -34t160 -52t140.5 -83t100 -127t37.5 -184z" />
    <glyph glyph-name="percent" unicode="%" horiz-adv-x="2017" 
d="M444 704q-116 0 -208.5 50t-146.5 146t-54 233q0 136 54 232t146.5 146.5t208.5 50.5q117 0 209.5 -50.5t146.5 -146.5t54 -232q0 -137 -54 -233t-146.5 -146t-209.5 -50zM297 0l1052 1540h371l-1051 -1540h-372zM444 942q25 0 47 17t36 58.5t14 115.5t-14 115.5
t-36 58.5t-47 17q-24 0 -46 -17t-36 -58.5t-14 -115.5t14 -115.5t36 -58.5t46 -17zM1573 -22q-117 0 -209.5 50t-146 146t-53.5 233q0 136 53.5 232t146 146.5t209.5 50.5t209.5 -50.5t146 -146.5t53.5 -232q0 -137 -53.5 -233t-146 -146t-209.5 -50zM1573 216q24 0 46.5 17
t36.5 58.5t14 115.5t-14 115.5t-36.5 58.5t-46.5 17t-46.5 -17t-36.5 -58.5t-14 -115.5t14 -115.5t36.5 -58.5t46.5 -17z" />
    <glyph glyph-name="ampersand" unicode="&#x26;" horiz-adv-x="1709" 
d="M1643 744q-42 -192 -145 -348l145 -123l-266 -302l-163 141q-110 -71 -239.5 -109t-274.5 -38q-185 0 -330.5 58t-229 159t-83.5 229q0 146 73 253t226 192q-132 143 -132 295q0 184 152 299.5t403 115.5q229 0 369.5 -105.5t140.5 -283.5q0 -117 -65.5 -209t-200.5 -167
l163 -139q39 90 59 200zM781 1245q-51 0 -78.5 -25t-27.5 -63q0 -28 16 -54.5t61 -68.5q67 36 94 68.5t27 63.5q0 35 -23 57t-69 22zM737 334q89 0 174 38l-282 242q-86 -62 -86 -148q0 -54 51 -93t143 -39z" />
    <glyph glyph-name="quotesingle" unicode="'" horiz-adv-x="559" 
d="M103 880l-33 660h418l-33 -660h-352z" />
    <glyph glyph-name="parenleft" unicode="(" horiz-adv-x="1014" 
d="M595 -767q-7 6 -48.5 53t-103 131t-129.5 201.5t-128 263.5t-98 317t-38 362q0 185 39 348t99.5 301t129.5 248t131.5 188t104.5 121.5t49 48.5l302 -329q-3 -1 -65.5 -71t-143.5 -196q-199 -325 -199 -659q0 -151 32.5 -286.5t80.5 -247.5t97 -196q81 -134 142 -208.5
t65 -76.5z" />
    <glyph glyph-name="parenright" unicode=")" horiz-adv-x="1014" 
d="M419 -767l-319 313q4 2 65 76.5t142 208.5q49 84 97 196t80.5 247.5t32.5 286.5q0 334 -199 659q-81 126 -143.5 196t-65.5 71l302 329q7 -5 49 -48.5t104.5 -121.5t131.5 -188t129.5 -248t99.5 -301t39 -348q0 -191 -38 -362t-98 -317t-128 -263.5t-129.5 -201.5
t-103 -131t-48.5 -53z" />
    <glyph glyph-name="asterisk" unicode="*" horiz-adv-x="1041" 
d="M1027 1283l-211 -113l211 -112l-151 -246l-216 132l7 -236h-295l6 236l-215 -132l-150 246l211 112l-211 113l150 246l215 -132l-6 235h295l-7 -235l216 132z" />
    <glyph glyph-name="plus" unicode="+" horiz-adv-x="1364" 
d="M1243 957v-374h-363v-352h-396v352h-363v374h363v352h396v-352h363z" />
    <glyph glyph-name="comma" unicode="," horiz-adv-x="669" 
d="M334 546q126 0 208.5 -76.5t82.5 -205.5q0 -53 -15 -111t-71 -177l-154 -328h-308l110 372q-67 32 -105 94.5t-38 149.5q0 129 82.5 205.5t207.5 76.5z" />
    <glyph glyph-name="hyphen" unicode="-" horiz-adv-x="858" 
d="M99 449v374h660v-374h-660z" />
    <glyph glyph-name="period" unicode="." horiz-adv-x="669" 
d="M50 183q0 118 82.5 202t200.5 84t202 -84t84 -202q0 -117 -84 -200t-202 -83t-200.5 83t-82.5 200z" />
    <glyph glyph-name="slash" unicode="/" horiz-adv-x="968" 
d="M-88 -220l726 2072h440l-726 -2072h-440z" />
    <glyph glyph-name="zero" unicode="0" horiz-adv-x="1522" 
d="M761 -35q-203 0 -360.5 95t-247 275t-89.5 435t89.5 435t247 275t360.5 95q204 0 361 -95t247 -275t90 -435t-90 -435t-247 -275t-361 -95zM761 381q51 0 90.5 35.5t62.5 120.5t23 233q0 149 -23 233.5t-62.5 120t-90.5 35.5q-50 0 -90 -35.5t-63 -120t-23 -233.5
q0 -148 23 -233t63 -120.5t90 -35.5z" />
    <glyph glyph-name="one" unicode="1" horiz-adv-x="920" 
d="M11 1540h783v-1540h-519v1148h-264v392z" />
    <glyph glyph-name="two" unicode="2" horiz-adv-x="1338" 
d="M777 403h519v-403h-1234v319l556 515q52 49 78.5 87t34.5 68t8 56q0 56 -37.5 88.5t-111.5 32.5q-70 0 -130.5 -36.5t-96.5 -106.5l-392 196q57 106 149.5 186t222 125t295.5 45q183 0 323 -59.5t220 -167.5t80 -255q0 -75 -19.5 -149.5t-77 -157.5t-167.5 -183z" />
    <glyph glyph-name="three" unicode="3" horiz-adv-x="1351" 
d="M928 931q182 -47 276 -162.5t94 -275.5q0 -99 -41 -193.5t-126.5 -169.5t-218.5 -120t-318 -45q-158 0 -319.5 34.5t-287.5 103.5l176 383q100 -57 208 -84.5t205 -27.5q88 0 144.5 29.5t56.5 89.5q0 49 -42 77t-141 28h-205v319l227 231h-550v392h1148v-319z" />
    <glyph glyph-name="four" unicode="4" horiz-adv-x="1566" 
d="M1558 667v-403h-205v-264h-504v264h-798v330l653 946h532l-580 -873h209v235h488v-235h205z" />
    <glyph glyph-name="five" unicode="5" horiz-adv-x="1362" 
d="M693 997q171 0 291 -38t194.5 -105t109 -156.5t34.5 -191.5q0 -103 -40.5 -200t-126.5 -173.5t-219 -122t-318 -45.5q-158 0 -319.5 34.5t-287.5 103.5l176 383q100 -57 207 -84.5t204 -27.5q88 0 145.5 31t57.5 90q0 33 -19.5 58t-70 38.5t-143.5 13.5h-447l77 935h1023
v-392h-596l-11 -151h79z" />
    <glyph glyph-name="six" unicode="6" horiz-adv-x="1454" 
d="M900 997q141 0 261 -60.5t193.5 -171t73.5 -261.5q0 -165 -84 -286t-225.5 -187t-315.5 -66q-220 0 -386.5 84t-259.5 252.5t-93 420.5q0 269 107.5 460t299.5 292t446 101q137 0 263 -31.5t215 -89.5l-187 -363q-68 47 -137.5 64.5t-142.5 17.5q-132 0 -219 -66.5
t-115 -195.5q57 41 132.5 63.5t173.5 22.5zM768 323q69 0 113.5 42t44.5 115q0 72 -44.5 115t-113.5 43t-114 -43t-45 -115q0 -73 45 -115t114 -42z" />
    <glyph glyph-name="seven" unicode="7" horiz-adv-x="1419" 
d="M46 1540h1318v-319l-513 -1221h-567l488 1137h-297v-224h-429v627z" />
    <glyph glyph-name="eight" unicode="8" horiz-adv-x="1492" 
d="M1230 812q98 -60 152.5 -149.5t54.5 -204.5q0 -150 -88 -260.5t-244 -171.5t-359 -61q-204 0 -359.5 61t-243.5 171.5t-88 260.5q0 115 54.5 204.5t152.5 149.5q-72 56 -112 132t-40 171q0 140 81 243.5t224.5 160t330.5 56.5t330.5 -56.5t224.5 -160t81 -243.5
q0 -95 -40.5 -171t-111.5 -132zM746 1225q-53 0 -88 -34.5t-35 -97.5q0 -62 35 -97t88 -35t88 35t35 97q0 63 -35 97.5t-88 34.5zM746 315q74 0 121.5 43t47.5 117t-47.5 117.5t-121.5 43.5t-122 -43.5t-48 -117.5t48 -117t122 -43z" />
    <glyph glyph-name="nine" unicode="9" horiz-adv-x="1454" 
d="M651 1575q220 0 386.5 -84t259.5 -252.5t93 -420.5q0 -269 -107.5 -460t-299.5 -292t-446 -101q-137 0 -262.5 31.5t-215.5 89.5l187 363q68 -47 137.5 -64.5t142.5 -17.5q132 0 219.5 66.5t114.5 195.5q-57 -41 -132.5 -63.5t-173.5 -22.5q-140 0 -260.5 60.5
t-194 171.5t-73.5 261q0 165 84 286t225.5 187t315.5 66zM686 902q70 0 114.5 43t44.5 115q0 73 -44.5 115t-114.5 42q-69 0 -113.5 -42t-44.5 -115q0 -72 44.5 -115t113.5 -43z" />
    <glyph glyph-name="colon" unicode=":" horiz-adv-x="669" 
d="M334 658q-123 0 -206.5 80t-83.5 206q0 127 83.5 204t206.5 77q124 0 207.5 -77t83.5 -204q0 -126 -83.5 -206t-207.5 -80zM334 -22q-123 0 -206.5 80.5t-83.5 205.5q0 127 83.5 204.5t206.5 77.5q124 0 207.5 -77.5t83.5 -204.5q0 -125 -83.5 -205.5t-207.5 -80.5z" />
    <glyph glyph-name="semicolon" unicode=";" horiz-adv-x="669" 
d="M334 658q-123 0 -206.5 80t-83.5 206q0 127 83.5 204t206.5 77q124 0 207.5 -77t83.5 -204q0 -126 -83.5 -206t-207.5 -80zM334 546q126 0 208.5 -76.5t82.5 -205.5q0 -53 -15 -111t-71 -177l-154 -328h-308l110 372q-67 32 -105 94.5t-38 149.5q0 129 82.5 205.5
t207.5 76.5z" />
    <glyph glyph-name="less" unicode="&#x3c;" horiz-adv-x="1364" 
d="M1243 1373v-374l-667 -229l667 -229v-374l-1122 407v392z" />
    <glyph glyph-name="equal" unicode="=" horiz-adv-x="1364" 
d="M121 869v374h1122v-374h-1122zM121 297v374h1122v-374h-1122z" />
    <glyph glyph-name="greater" unicode="&#x3e;" horiz-adv-x="1364" 
d="M121 1373l1122 -407v-392l-1122 -407v374l667 229l-667 229v374z" />
    <glyph glyph-name="question" unicode="?" horiz-adv-x="1333" 
d="M455 590q0 77 28 136t68.5 104.5t81.5 82.5q44 40 75 77t31 79q0 51 -43 77.5t-104 26.5q-71 0 -132 -40t-97 -110l-392 196q56 106 150 186t227.5 125t309.5 45q173 0 309 -47.5t215 -141t79 -231.5q0 -98 -34.5 -168.5t-85 -122t-101.5 -93.5q-36 -29 -65.5 -57.5
t-47.5 -58.5t-18 -65h-454zM682 -22q-86 0 -151.5 36t-102 95.5t-36.5 132.5q0 111 80.5 185.5t209.5 74.5t209.5 -74.5t80.5 -185.5q0 -73 -36.5 -132.5t-102 -95.5t-151.5 -36z" />
    <glyph glyph-name="at" unicode="@" horiz-adv-x="2281" 
d="M1159 1571q238 0 432.5 -74t334.5 -204.5t216 -303.5t76 -371q0 -210 -71 -352t-188.5 -214t-257.5 -72q-124 0 -212.5 48t-135.5 144q-46 -92 -127.5 -142t-206.5 -50q-89 0 -173 38t-150 109t-105 172.5t-39 228.5q0 169 66 291.5t172.5 188.5t228.5 66q175 0 270 -108
v88h423v-629q0 -70 24.5 -95.5t60.5 -25.5q31 0 56.5 25.5t41 92t15.5 190.5q0 199 -93.5 352t-262 240t-395.5 87q-225 0 -395 -96.5t-264.5 -262.5t-94.5 -375q0 -216 93 -383t260.5 -262t392.5 -95q109 0 220.5 23t223.5 74l92 -270q-101 -49 -245.5 -77.5t-290.5 -28.5
q-249 0 -449.5 77.5t-343 215.5t-218.5 323.5t-76 402.5q0 212 76.5 396.5t219.5 323t345.5 216.5t453.5 78zM1140 326q67 0 112.5 50.5t45.5 151.5q0 99 -45.5 149.5t-112.5 50.5q-68 0 -112.5 -50.5t-44.5 -149.5q0 -101 44.5 -151.5t112.5 -50.5z" />
    <glyph glyph-name="A" unicode="A" horiz-adv-x="1773" 
d="M1278 0l-103 268h-585l-104 -268h-528l673 1540h511l673 -1540h-537zM733 642h299l-150 388z" />
    <glyph glyph-name="B" unicode="B" horiz-adv-x="1701" 
d="M1357 805q137 -50 211.5 -146.5t74.5 -233.5q0 -202 -166 -313.5t-485 -111.5h-867v1540h823q213 0 350.5 -52t205 -143t67.5 -208q0 -107 -54 -192.5t-160 -139.5zM878 1177h-242v-229h242q87 0 128 29.5t41 85.5t-41 85t-128 29zM948 363q172 0 172 121q0 119 -172 121
h-312v-242h312z" />
    <glyph glyph-name="C" unicode="C" horiz-adv-x="1637" 
d="M922 -35q-248 0 -441.5 102.5t-305 284.5t-111.5 418q0 237 111.5 418.5t305 284t441.5 102.5q226 0 401 -79.5t290 -228.5l-328 -292q-67 86 -150 133t-187 47q-161 0 -261 -104t-100 -281t100 -281t261 -104q104 0 187 47t150 133l328 -292q-115 -149 -290 -228.5
t-401 -79.5z" />
    <glyph glyph-name="D" unicode="D" horiz-adv-x="1817" 
d="M125 0v1540h759q258 0 453.5 -93t305.5 -265.5t110 -411.5t-110 -411.5t-305.5 -265.5t-453.5 -93h-759zM645 405h217q109 0 192 42t129.5 123.5t46.5 199.5t-46.5 199.5t-129.5 123.5t-192 42h-217v-730z" />
    <glyph glyph-name="E" unicode="E" horiz-adv-x="1481" 
d="M636 392h770v-392h-1281v1540h1252v-392h-741v-180h651v-374h-651v-202z" />
    <glyph glyph-name="F" unicode="F" horiz-adv-x="1417" 
d="M1377 1148h-732v-264h642v-391h-642v-493h-520v1540h1252v-392z" />
    <glyph glyph-name="G" unicode="G" horiz-adv-x="1692" 
d="M1144 422v390h451v-651q-143 -96 -322 -146t-349 -50q-249 0 -443 102.5t-305.5 284.5t-111.5 418q0 237 112 418.5t308.5 284t450.5 102.5q455 0 704 -297l-332 -292q-73 84 -158 126.5t-188 42.5q-171 0 -272.5 -103.5t-101.5 -281.5q0 -173 100.5 -279t267.5 -106
q96 0 189 37z" />
    <glyph glyph-name="H" unicode="H" horiz-adv-x="1769" 
d="M1124 1540h519v-1540h-519v568h-479v-568h-520v1540h520v-546h479v546z" />
    <glyph glyph-name="I" unicode="I" horiz-adv-x="770" 
d="M125 0v1540h520v-1540h-520z" />
    <glyph glyph-name="J" unicode="J" horiz-adv-x="1263" 
d="M515 -35q-180 0 -325.5 58t-242.5 171l280 330q60 -76 119.5 -114t124.5 -38q81 0 124 48.5t43 142.5v585h-524v392h1037v-946q0 -317 -163 -473t-473 -156z" />
    <glyph glyph-name="K" unicode="K" horiz-adv-x="1683" 
d="M1137 0l-385 510l-116 -129v-381h-511v1540h511v-559l506 559h565l-616 -678l647 -862h-601z" />
    <glyph glyph-name="L" unicode="L" horiz-adv-x="1357" 
d="M125 0v1540h520v-1137h695v-403h-1215z" />
    <glyph glyph-name="M" unicode="M" horiz-adv-x="2099" 
d="M1973 0h-473l-4 702l-334 -563h-229l-335 539v-678h-473v1540h427l502 -821l488 821h427z" />
    <glyph glyph-name="N" unicode="N" horiz-adv-x="1769" 
d="M1137 1540h506v-1540h-426l-586 700v-700h-506v1540h427l585 -700v700z" />
    <glyph glyph-name="O" unicode="O" horiz-adv-x="1866" 
d="M933 -35q-251 0 -447.5 104t-309 286t-112.5 415t112.5 415t309 286t447.5 104t447 -104t309 -286t113 -415t-113 -415t-309 -286t-447 -104zM933 385q96 0 174 46.5t124.5 132.5t46.5 206t-46.5 206t-124.5 132.5t-174 46.5t-174.5 -46.5t-125 -132.5t-46.5 -206
t46.5 -206t125 -132.5t174.5 -46.5z" />
    <glyph glyph-name="P" unicode="P" horiz-adv-x="1635" 
d="M867 1540q214 0 371.5 -71t244 -201.5t86.5 -308.5t-86.5 -308.5t-244 -201.5t-371.5 -71h-222v-378h-520v1540h742zM834 779q107 0 159 48t52 132t-52 132.5t-159 48.5h-189v-361h189z" />
    <glyph glyph-name="Q" unicode="Q" horiz-adv-x="1866" 
d="M1661 70l224 -264q-171 -195 -448 -195q-137 0 -247.5 33.5t-223 116t-249.5 226.5q-195 42 -341.5 151t-229 271.5t-82.5 360.5q0 233 112.5 415t309 286t447.5 104t447 -104t309 -286t113 -415q0 -256 -134.5 -448.5t-362.5 -286.5q34 -36 67.5 -50t75.5 -14
q112 0 213 99zM933 1155q-96 0 -174.5 -46.5t-125 -132.5t-46.5 -206t46.5 -206t125 -132.5t174.5 -46.5t174 46.5t124.5 132.5t46.5 206t-46.5 206t-124.5 132.5t-174 46.5z" />
    <glyph glyph-name="R" unicode="R" horiz-adv-x="1639" 
d="M1047 0l-262 387h-140v-387h-520v1540h742q214 0 371.5 -71t244 -201.5t86.5 -308.5q0 -166 -75.5 -289t-215.5 -195l324 -475h-555zM1045 959q0 84 -52 132.5t-159 48.5h-189v-361h189q107 0 159 48t52 132z" />
    <glyph glyph-name="S" unicode="S" horiz-adv-x="1445" 
d="M700 -35q-193 0 -373 43t-298 115l167 379q254 -141 508 -141q111 0 155.5 22t44.5 61q0 36 -34.5 58t-93.5 37.5t-132 30.5q-76 15 -157.5 35.5t-158.5 53t-139 84t-99 128t-37 185.5q0 143 79.5 261t239 188t398.5 70q155 0 306.5 -33t274.5 -101l-156 -376
q-228 114 -429 114q-76 0 -120 -13t-62.5 -35t-18.5 -49q0 -33 34.5 -54t92 -35.5t129.5 -28.5q76 -14 158 -34t160 -52t140.5 -83t100 -127t37.5 -184q0 -106 -45 -199.5t-135 -165.5t-224 -113t-313 -41z" />
    <glyph glyph-name="T" unicode="T" horiz-adv-x="1439" 
d="M460 0v1137h-451v403h1421v-403h-451v-1137h-519z" />
    <glyph glyph-name="U" unicode="U" horiz-adv-x="1725" 
d="M862 -35q-354 0 -552 191t-198 537v847h519v-832q0 -117 29 -188t81.5 -103t125.5 -32q72 0 125 32t81.5 103t28.5 188v832h511v-847q0 -346 -198 -537t-553 -191z" />
    <glyph glyph-name="V" unicode="V" horiz-adv-x="1729" 
d="M1261 1540h510l-651 -1540h-511l-651 1540h559l367 -900z" />
    <glyph glyph-name="W" unicode="W" horiz-adv-x="2653" 
d="M2138 1540h493l-493 -1540h-556l-249 823l-262 -823h-556l-493 1540h535l268 -876l284 876h477l269 -887z" />
    <glyph glyph-name="X" unicode="X" horiz-adv-x="1676" 
d="M1694 0h-594l-266 411l-260 -411h-592l557 777l-537 763h583l262 -387l255 387h559l-535 -744z" />
    <glyph glyph-name="Y" unicode="Y" horiz-adv-x="1562" 
d="M1621 1540l-580 -981v-559h-520v565l-580 975h547l315 -532l317 532h501z" />
    <glyph glyph-name="Z" unicode="Z" horiz-adv-x="1511" 
d="M746 403h739v-403h-1415v319l704 818h-682v403h1358v-319z" />
    <glyph glyph-name="bracketleft" unicode="[" horiz-adv-x="902" 
d="M125 -427v2059h755v-374h-257v-1311h257v-374h-755z" />
    <glyph glyph-name="backslash" unicode="\" horiz-adv-x="968" 
d="M1056 -220h-440l-726 2072h440z" />
    <glyph glyph-name="bracketright" unicode="]" horiz-adv-x="902" 
d="M777 -427h-755v374h257v1311h-257v374h755v-2059z" />
    <glyph glyph-name="asciicircum" unicode="^" horiz-adv-x="1364" 
d="M1285 306h-374l-229 552l-229 -552h-374l407 928h392z" />
    <glyph glyph-name="underscore" unicode="_" horiz-adv-x="1100" 
d="M0 -264v264h1100v-264h-1100z" />
    <glyph glyph-name="grave" unicode="`" horiz-adv-x="1320" 
d="M561 1335l-433 352h473l290 -352h-330z" />
    <glyph glyph-name="a" unicode="a" horiz-adv-x="1406" 
d="M649 1225q207 0 352.5 -61t222 -189t76.5 -328v-647h-462v158q-87 -180 -341 -180q-147 0 -246.5 50.5t-149.5 135.5t-50 188q0 175 134.5 269t415.5 94h200q-11 69 -66 105t-161 36q-81 0 -164 -25t-144 -70l-158 328q108 66 254.5 101t286.5 35zM647 277q51 0 93 27.5
t63 87.5v83h-123q-79 0 -115.5 -25.5t-36.5 -75.5q0 -41 31.5 -69t87.5 -28z" />
    <glyph glyph-name="b" unicode="b" horiz-adv-x="1540" 
d="M913 1225q157 0 289 -75t212 -214.5t80 -332.5q0 -194 -80 -334t-212 -215.5t-289 -75.5q-224 0 -330 121v-99h-473v1632h497v-510q108 103 306 103zM794 365q83 0 139.5 60.5t56.5 177.5q0 78 -26 130.5t-70.5 78.5t-99.5 26t-99.5 -26t-70.5 -78.5t-26 -130.5
q0 -117 57 -177.5t139 -60.5z" />
    <glyph glyph-name="c" unicode="c" horiz-adv-x="1353" 
d="M757 -22q-208 0 -368.5 79.5t-251.5 220.5t-91 325q0 182 91 322.5t251.5 220t368.5 79.5q219 0 374.5 -94t217.5 -262l-385 -189q-39 83 -92 120.5t-117 37.5q-56 0 -102.5 -26t-74.5 -78.5t-28 -130.5q0 -79 28 -132t74.5 -79.5t102.5 -26.5q64 0 117 37.5t92 121.5
l385 -190q-62 -168 -217.5 -262t-374.5 -94z" />
    <glyph glyph-name="d" unicode="d" horiz-adv-x="1551" 
d="M944 1632h497v-1632h-473v99q-106 -121 -330 -121q-157 0 -289 75.5t-212 215.5t-80 334q0 193 80 332.5t212 214.5t289 75q198 0 306 -103v510zM757 365q82 0 139 60.5t57 177.5q0 78 -26 130.5t-70.5 78.5t-99.5 26t-99.5 -26t-70.5 -78.5t-26 -130.5
q0 -117 56.5 -177.5t139.5 -60.5z" />
    <glyph glyph-name="e" unicode="e" horiz-adv-x="1437" 
d="M1390 603q0 -38 -4 -85q-1 -17 -2 -32h-836q57 -141 242 -141q82 0 137.5 22t113.5 66l259 -261q-87 -96 -216.5 -145t-309.5 -49q-221 0 -384.5 81.5t-253.5 223t-90 320.5q0 182 89.5 322.5t244 220t348.5 79.5q134 0 253.5 -40t211.5 -118.5t144.5 -195t52.5 -268.5z
M733 887q-78 0 -128.5 -42.5t-65.5 -118.5h387q-15 76 -66 118.5t-127 42.5z" />
    <glyph glyph-name="f" unicode="f" horiz-adv-x="937" 
d="M647 1140v-3h262v-363h-247v-774h-497v774h-165v363h165v7q0 155 62.5 269.5t182.5 177.5t292 63q79 0 158.5 -14.5t136.5 -44.5l-119 -345q-25 11 -54 19.5t-58 8.5q-53 0 -86 -33t-33 -105z" />
    <glyph glyph-name="g" unicode="g" horiz-adv-x="1564" 
d="M981 1203h473v-963q0 -233 -87.5 -386t-251 -228t-393.5 -75q-179 0 -334.5 37.5t-268.5 112.5l167 339q74 -55 181 -87t204 -32q153 0 219.5 65t66.5 186v22q-111 -128 -332 -128q-115 0 -219 40.5t-185 116.5t-128 183t-47 241q0 133 47 240t128 182.5t185 115.5
t219 40q247 0 356 -158v136zM757 453q87 0 145.5 53t58.5 141q0 87 -58.5 139t-145.5 52q-88 0 -147.5 -52t-59.5 -139q0 -88 59.5 -141t147.5 -53z" />
    <glyph glyph-name="h" unicode="h" horiz-adv-x="1544" 
d="M946 1225q139 0 250.5 -55.5t177 -174.5t65.5 -309v-686h-497v601q0 112 -40 159t-108 47q-50 0 -92.5 -23t-68.5 -76t-26 -143v-565h-497v1632h497v-525q144 118 339 118z" />
    <glyph glyph-name="i" unicode="i" horiz-adv-x="717" 
d="M359 1300q-137 0 -218.5 73t-81.5 180t81.5 180t218.5 73t218 -68.5t81 -175.5q0 -114 -81 -188t-218 -74zM110 0v1203h497v-1203h-497z" />
    <glyph glyph-name="j" unicode="j" horiz-adv-x="735" 
d="M376 1300q-137 0 -218 73t-81 180t81 180t218 73t218 -68.5t81 -175.5q0 -114 -81 -188t-218 -74zM99 -449q-87 0 -167 15t-139 45l119 345q53 -29 112 -29q45 0 74.5 33t29.5 106v1137h497v-1141q0 -155 -62.5 -270t-180 -178t-283.5 -63z" />
    <glyph glyph-name="k" unicode="k" horiz-adv-x="1569" 
d="M979 0l-293 370l-79 -86v-284h-497v1632h497v-778l346 349h587l-497 -521l537 -682h-601z" />
    <glyph glyph-name="l" unicode="l" horiz-adv-x="717" 
d="M110 0v1632h497v-1632h-497z" />
    <glyph glyph-name="m" unicode="m" horiz-adv-x="2288" 
d="M1703 1225q136 0 244.5 -55.5t171.5 -174.5t63 -309v-686h-497v601q0 112 -37.5 159t-96.5 47q-44 0 -79.5 -21.5t-56 -69.5t-20.5 -129v-587h-497v601q0 112 -36 159t-99 47q-44 0 -79 -21.5t-56 -69.5t-21 -129v-587h-497v1203h473v-112q68 68 155 101t186 33
q117 0 214.5 -44t161.5 -138q155 182 403 182z" />
    <glyph glyph-name="n" unicode="n" horiz-adv-x="1544" 
d="M946 1225q139 0 250.5 -55.5t177 -174.5t65.5 -309v-686h-497v601q0 112 -40 159t-108 47q-50 0 -92.5 -23t-68.5 -76t-26 -143v-565h-497v1203h473v-118q72 70 164.5 105t198.5 35z" />
    <glyph glyph-name="o" unicode="o" horiz-adv-x="1492" 
d="M746 -22q-204 0 -362 80t-248 221t-90 324q0 182 90 322.5t248 220t362 79.5t362 -79.5t247.5 -220t89.5 -322.5q0 -183 -89.5 -324t-247.5 -221t-362 -80zM746 365q82 0 139 60.5t57 177.5q0 78 -26 130.5t-70.5 78.5t-99.5 26t-99.5 -26t-70.5 -78.5t-26 -130.5
q0 -117 56.5 -177.5t139.5 -60.5z" />
    <glyph glyph-name="p" unicode="p" horiz-adv-x="1540" 
d="M913 1225q157 0 289 -75.5t212 -215.5t80 -333q0 -194 -80 -333.5t-212 -214.5t-289 -75q-198 0 -306 103v-508h-497v1630h473v-99q106 121 330 121zM794 365q55 0 99.5 26.5t70.5 79t26 130.5q0 117 -56.5 177t-139.5 60q-82 0 -139 -60t-57 -177q0 -78 26 -130.5
t70.5 -79t99.5 -26.5z" />
    <glyph glyph-name="q" unicode="q" horiz-adv-x="1540" 
d="M957 1203h473v-1630h-497v508q-108 -103 -306 -103q-157 0 -289 75t-212 214.5t-80 333.5q0 193 80 333t212 215.5t289 75.5q224 0 330 -121v99zM746 365q55 0 99.5 26.5t70.5 79t26 130.5q0 117 -57 177t-139 60q-83 0 -139.5 -60t-56.5 -177q0 -78 26 -130.5t70.5 -79
t99.5 -26.5z" />
    <glyph glyph-name="r" unicode="r" horiz-adv-x="1003" 
d="M583 1074q66 76 165 113.5t224 37.5v-440q-57 9 -110 9q-74 0 -132 -25t-90.5 -82t-32.5 -152v-535h-497v1203h473v-129z" />
    <glyph glyph-name="s" unicode="s" horiz-adv-x="1243" 
d="M581 -22q-155 0 -302.5 32.5t-243.5 86.5l137 328q88 -52 200.5 -80t219.5 -28q91 0 122.5 15.5t31.5 41.5q0 21 -24 32t-65 17.5t-93 12.5q-63 6 -132.5 17.5t-136.5 33.5t-121.5 62.5t-87.5 104.5t-33 160q0 113 69.5 206.5t206.5 149t340 55.5q132 0 262.5 -24.5
t227.5 -74.5l-136 -327q-93 50 -182.5 69t-165.5 19q-63 0 -98.5 -8.5t-49.5 -21.5t-14 -28q0 -21 24 -32.5t65 -18.5t94 -13q62 -7 131 -18.5t135.5 -34t121 -63t87 -104.5t32.5 -160q0 -109 -68.5 -201.5t-206.5 -149t-347 -56.5z" />
    <glyph glyph-name="t" unicode="t" horiz-adv-x="1012" 
d="M878 387l119 -345q-59 -33 -139 -48.5t-167 -15.5q-166 0 -284 53t-180 161t-62 274v308h-165v363h165v337h497v-337h247v-363h-247v-303q0 -56 29.5 -86.5t74.5 -30.5q59 0 112 33z" />
    <glyph glyph-name="u" unicode="u" horiz-adv-x="1536" 
d="M928 1203h498v-1203h-473v114q-69 -69 -156.5 -102.5t-184.5 -33.5q-144 0 -258.5 58.5t-181 182.5t-66.5 320v664h497v-578q0 -86 19 -136t54 -71.5t83 -21.5q43 0 81.5 23.5t63 76.5t24.5 142v565z" />
    <glyph glyph-name="v" unicode="v" horiz-adv-x="1417" 
d="M979 1203h471l-484 -1203h-515l-484 1203h510l242 -644z" />
    <glyph glyph-name="w" unicode="w" horiz-adv-x="2149" 
d="M1727 1203h436l-418 -1203h-484l-183 557l-189 -557h-484l-418 1203h471l206 -635l216 635h422l209 -642z" />
    <glyph glyph-name="x" unicode="x" horiz-adv-x="1419" 
d="M1439 0h-570l-165 257l-185 -257h-539l456 596l-443 607h561l172 -255l180 255h522l-442 -585z" />
    <glyph glyph-name="y" unicode="y" horiz-adv-x="1417" 
d="M979 1203h471l-495 -1227q-66 -164 -152.5 -257t-193.5 -130.5t-235 -37.5q-99 0 -200 29t-165 79l165 341q87 -64 176 -64q44 0 74 12.5t49 36.5l-506 1218h510l249 -644z" />
    <glyph glyph-name="z" unicode="z" horiz-adv-x="1254" 
d="M693 363h521v-363h-1148v286l497 554h-479v363h1106v-286z" />
    <glyph glyph-name="braceleft" unicode="{" horiz-adv-x="964" 
d="M763 898q0 -132 -43 -200.5t-135 -94.5q92 -27 135 -95t43 -200v-209q0 -73 39.5 -112.5t117.5 -39.5h22v-374h-163q-256 0 -384.5 123t-128.5 346v277q0 50 -26.5 73.5t-67.5 23.5h-73v374h73q41 0 67.5 23.5t26.5 73.5v277q0 223 128.5 345.5t384.5 122.5h163v-374h-22
q-155 0 -157 -151v-209z" />
    <glyph glyph-name="bar" unicode="|" horiz-adv-x="704" 
d="M125 -427v2059h454v-2059h-454z" />
    <glyph glyph-name="braceright" unicode="}" horiz-adv-x="964" 
d="M792 790h73v-374h-73q-41 0 -68 -23.5t-27 -73.5v-277q0 -223 -128 -346t-384 -123h-163v374h22q155 0 156 152v209q0 132 43 200t135 95q-92 26 -135 94.5t-43 200.5v209q0 72 -39 111.5t-117 39.5h-22v374h163q256 0 384 -122.5t128 -345.5v-277q0 -50 27 -73.5
t68 -23.5z" />
    <glyph glyph-name="asciitilde" unicode="~" horiz-adv-x="1364" 
d="M900 517q-59 0 -107 16t-87.5 40t-72.5 48q-36 25 -67.5 43t-61.5 18q-48 0 -78 -36t-34 -103h-304q6 231 109.5 359t266.5 128q59 0 107 -16.5t87.5 -40t72.5 -47.5q36 -26 67.5 -43.5t61.5 -17.5q48 0 78 36t34 102h304q-6 -231 -109.5 -358.5t-266.5 -127.5z" />
    <glyph glyph-name="exclamdown" unicode="&#xa1;" horiz-adv-x="691" 
d="M345 1225q86 0 151.5 -35.5t102.5 -95.5t37 -133q0 -110 -81 -184.5t-210 -74.5q-128 0 -209 74.5t-81 184.5q0 73 37 133t102.5 95.5t150.5 35.5zM543 614l99 -953h-594l99 953h396z" />
    <glyph glyph-name="cent" unicode="&#xa2;" horiz-adv-x="1353" 
d="M755 365q64 0 117 37.5t92 121.5l385 -190q-110 -287 -460 -347v-251h-310v260q-161 31 -280.5 115t-186 210t-66.5 282q0 155 66.5 280.5t186 209t280.5 115.5v259h310v-250q350 -60 460 -348l-385 -189q-39 83 -92 120.5t-117 37.5q-56 0 -102.5 -26t-74.5 -78.5
t-28 -130.5q0 -79 28 -132t74.5 -79.5t102.5 -26.5z" />
    <glyph glyph-name="sterling" unicode="&#xa3;" horiz-adv-x="1527" 
d="M783 625v-233h669v-392h-1386v392h198v233h-198v290h198q14 320 217.5 490t567.5 170q271 0 458 -94l-150 -392q-65 34 -134.5 50t-129.5 16q-140 0 -220.5 -58.5t-89.5 -181.5h462v-290h-462z" />
    <glyph glyph-name="currency" unicode="&#xa4;" horiz-adv-x="1540" 
d="M1327 711q0 -129 -55 -240l226 -227l-275 -275l-231 231q-105 -48 -224 -48t-225 46l-228 -229l-275 275l224 225q-55 113 -55 242q0 118 48 224l-217 218l275 275l213 -214q111 55 240 55q132 0 242 -55l213 214l275 -275l-218 -218q47 -106 47 -224zM768 537
q72 0 124 50.5t52 123.5q0 72 -52 124t-124 52q-73 0 -123.5 -52t-50.5 -124q0 -73 50.5 -123.5t123.5 -50.5z" />
    <glyph glyph-name="yen" unicode="&#xa5;" horiz-adv-x="1694" 
d="M1753 1540l-556 -858h262v-246h-352v-58h352v-246h-352v-132h-520v132h-352v246h352v58h-352v246h264l-558 858h554l374 -565l376 565h508z" />
    <glyph glyph-name="brokenbar" unicode="&#xa6;" horiz-adv-x="704" 
d="M125 862v770h454v-770h-454zM125 -427v770h454v-770h-454z" />
    <glyph glyph-name="section" unicode="&#xa7;" horiz-adv-x="1208" 
d="M1157 678q0 -73 -30 -140t-91 -122q38 -39 60 -95t22 -134q0 -120 -61 -217t-184 -154.5t-308 -57.5q-143 0 -288.5 32.5t-241.5 86.5l137 328q88 -52 196.5 -80t192.5 -28q66 0 93.5 21.5t27.5 50.5q0 31 -27 48t-73 28t-102 21q-72 11 -148 30t-141.5 56t-107 101.5
t-41.5 169.5q0 82 30 154.5t91 128.5q-37 40 -58 95.5t-21 131.5q0 120 65.5 217t201.5 154.5t349 57.5q94 0 237 -23.5t242 -75.5l-136 -328q-93 50 -184.5 69t-180.5 19q-64 0 -98.5 -10t-47.5 -26.5t-13 -35.5q0 -24 24 -38.5t64.5 -24.5t91.5 -19q72 -13 151 -34
t149 -61.5t114 -111t44 -184.5zM471 664q0 -29 25.5 -46.5t68.5 -28.5t97 -21q5 -1 11 -3q55 40 55 93q0 30 -25.5 47t-68.5 28.5t-97 21.5q-5 1 -11 2q-55 -40 -55 -93z" />
    <glyph glyph-name="dieresis" unicode="&#xa8;" horiz-adv-x="1320" 
d="M416 1318q-84 0 -141 53t-57 140q0 88 57 142t141 54t141 -54t57 -142q0 -87 -57 -140t-141 -53zM904 1318q-84 0 -141 53t-57 140q0 88 57 142t141 54t141 -54t57 -142q0 -87 -57 -140t-141 -53z" />
    <glyph glyph-name="copyright" unicode="&#xa9;" horiz-adv-x="1681" 
d="M838 -7q-219 0 -394 104t-277.5 280t-102.5 393t102.5 393t279 280t397.5 104t396 -102t276.5 -277t101.5 -394q0 -218 -103.5 -395.5t-280 -281.5t-395.5 -104zM838 187q165 0 294.5 77.5t203.5 210.5t74 299q0 167 -72 297.5t-200 206t-295 75.5q-168 0 -297 -77
t-202 -209t-73 -297t73 -297t201 -209t293 -77zM873 334q-138 0 -245.5 56t-168.5 154t-61 226t61 226t168.5 154t245.5 56q147 0 251 -66t145 -183l-281 -143q-22 47 -51 67.5t-66 20.5q-43 0 -77.5 -33t-34.5 -99t34.5 -99t77.5 -33q37 0 66 20.5t51 67.5l281 -143
q-41 -117 -145 -183t-251 -66z" />
    <glyph glyph-name="ordfeminine" unicode="&#xaa;" horiz-adv-x="928" 
d="M422 1654q203 0 315 -84t112 -265v-381h-312v92q-54 -105 -216 -105q-94 0 -157.5 30.5t-95 81.5t-31.5 112q0 106 86.5 161t268.5 55h116q-8 35 -42.5 53.5t-100.5 18.5q-44 0 -95.5 -14t-91.5 -41l-105 205q71 40 165.5 60.5t183.5 20.5zM422 1098q28 0 53 14.5
t38 46.5v42h-69q-92 0 -90 -53q0 -21 18.5 -35.5t49.5 -14.5z" />
    <glyph glyph-name="guillemotleft" unicode="&#xab;" horiz-adv-x="1132" 
d="M805 1102l195 -135l-18 -21.5t-44 -61.5q-25 -38 -50 -90t-42.5 -115.5t-17.5 -134.5q0 -94 25.5 -170.5t58.5 -131t59 -84l26 -29.5l-188 -143l-35.5 40t-80.5 114t-80.5 176.5t-35.5 227.5q0 118 35 219.5t79.5 177.5t79 118.5zM395 1196l195 -157l-18 -25t-44 -71
q-25 -45 -50.5 -105.5t-42.5 -134.5t-17 -156q0 -110 25.5 -198.5t58.5 -152t59 -98l26 -34.5l-188 -166l-35.5 47t-80.5 133t-80.5 205t-35.5 264q0 137 35 255t79.5 206.5t79 138z" />
    <glyph glyph-name="logicalnot" unicode="&#xac;" horiz-adv-x="1364" 
d="M1243 957v-748h-396v374h-726v374h1122z" />
    <glyph glyph-name="softhyphen" unicode="&#xad;" horiz-adv-x="858" 
d="M99 449v374h660v-374h-660z" />
    <glyph glyph-name="registered" unicode="&#xae;" horiz-adv-x="1681" 
d="M843 1547q221 0 396 -102t276.5 -277t101.5 -394q0 -218 -103.5 -395.5t-280 -281.5t-395.5 -104t-394 104t-277.5 280t-102.5 393t102.5 393t279 280t397.5 104zM1278 389q63 78 97.5 175.5t34.5 209.5q0 167 -72 297.5t-200 206t-295 75.5q-168 0 -297 -77t-202 -209
t-73 -297t73 -297t201 -209t293 -77q124 0 228.5 45t180.5 124h-268l-136 212h-51v-212h-317v828h394q185 0 287 -84t102 -224q0 -175 -132 -251zM792 785h57q89 0 93 91q0 41 -24 65.5t-69 24.5h-57v-181z" />
    <glyph glyph-name="macron" unicode="&#xaf;" horiz-adv-x="1320" 
d="M198 1382v259h924v-259h-924z" />
    <glyph glyph-name="degree" unicode="&#xb0;" horiz-adv-x="915" 
d="M458 768q-114 0 -208 52.5t-150 143t-56 202.5t56 202.5t150 143t208 52.5q113 0 207 -52.5t150 -143t56 -202.5t-56 -202.5t-150 -143t-207 -52.5zM458 997q72 0 119.5 49t47.5 120t-47.5 120t-119.5 49q-73 0 -120.5 -49t-47.5 -120t47.5 -120t120.5 -49z" />
    <glyph glyph-name="plusminus" unicode="&#xb1;" horiz-adv-x="1364" 
d="M880 1206h363v-355h-363v-334h-396v334h-363v355h363v334h396v-334zM121 0v374h1122v-374h-1122z" />
    <glyph glyph-name="twosuperior" unicode="&#xb2;" horiz-adv-x="946" 
d="M557 970h325v-251h-805v201l350 299q48 41 63.5 69t15.5 50q0 26 -21 43.5t-67 17.5q-102 0 -147 -83l-256 121q32 63 90.5 112t144.5 77t199 28q181 0 293 -78t112 -212q0 -44 -14.5 -87t-53 -92t-108.5 -111z" />
    <glyph glyph-name="threesuperior" unicode="&#xb3;" horiz-adv-x="946" 
d="M675 1276q118 -27 178 -96.5t60 -165.5q0 -78 -48 -150.5t-150.5 -119.5t-267.5 -47q-119 0 -234 24.5t-193 68.5l114 240q73 -38 154 -57.5t150 -19.5q129 0 127 61q0 25 -23 39t-82 14h-159v200l139 121h-370v244h788v-200z" />
    <glyph glyph-name="acute" unicode="&#xb4;" horiz-adv-x="1320" 
d="M429 1335l290 352h473l-433 -352h-330z" />
    <glyph glyph-name="mu" unicode="&#xb5;" horiz-adv-x="1540" 
d="M933 1203h497v-1203h-429v112q-49 -72 -115.5 -103t-137.5 -31q-79 0 -141 31v-436h-497v1630h497v-578q0 -86 19 -136t54 -71.5t83 -21.5q43 0 82 23.5t63.5 76.5t24.5 142v565z" />
    <glyph glyph-name="paragraph" unicode="&#xb6;" horiz-adv-x="1606" 
d="M504 -220v953q-137 5 -246.5 60t-174.5 154t-65 234q0 139 71 240t199.5 156t301.5 55h891v-1852h-401v1511h-176v-1511h-400z" />
    <glyph glyph-name="periodcentered" unicode="&#xb7;" horiz-adv-x="757" 
d="M378 350q-128 0 -209 79t-81 209t81 207t209 77q129 0 210 -77t81 -207t-81 -209t-210 -79z" />
    <glyph glyph-name="cedilla" unicode="&#xb8;" horiz-adv-x="1320" 
d="M570 -528q-56 0 -117 13t-99 33l62 183q25 -11 58.5 -19t73.5 -8q56 0 80.5 15t24.5 38q0 20 -21 32t-69 12h-90l59 251h256l-31 -136q69 -10 110 -37t59 -64t18 -75q0 -111 -103 -174.5t-271 -63.5z" />
    <glyph glyph-name="onesuperior" unicode="&#xb9;" horiz-adv-x="946" 
d="M686 964h163v-245h-708v245h193v424h-171v244h523v-668z" />
    <glyph glyph-name="ordmasculine" unicode="&#xba;" horiz-adv-x="964" 
d="M482 911q-130 0 -231 47.5t-158.5 131.5t-57.5 193t57.5 192.5t158.5 131t231 47.5q196 0 321 -104t125 -267q0 -164 -125 -268t-321 -104zM482 1153q48 0 81 32.5t33 97.5q0 66 -33 97.5t-81 31.5t-81.5 -31.5t-33.5 -97.5q0 -65 33.5 -97.5t81.5 -32.5z" />
    <glyph glyph-name="guillemotright" unicode="&#xbb;" horiz-adv-x="1132" 
d="M322 1102l35 -42.5t79.5 -118.5t79 -177.5t34.5 -219.5q0 -125 -35 -227.5t-80.5 -176.5t-80.5 -114l-35 -40l-188 143l25.5 29.5t58.5 84t58.5 131t25.5 170.5q0 71 -17 134.5t-42 115.5t-51 90q-26 40 -44 61.5l-18 21.5zM732 1196l35 -49.5t79.5 -138t79 -206.5
t34.5 -255q0 -145 -35 -264t-80.5 -205t-80.5 -133l-35 -47l-188 166l25.5 34.5t58.5 98t58.5 152t25.5 198.5q0 82 -17 156t-42 134.5t-51 105.5q-26 46 -44 71l-18 25z" />
    <glyph glyph-name="onequarter" unicode="&#xbc;" horiz-adv-x="2325" 
d="M849 871v-244h-708v244h193v425h-171v244h523v-669h163zM1503 1540h371l-1051 -1540h-372zM2303 400v-250h-110v-150h-334v150h-482v206l385 557h368l-357 -513h126v121h294v-121h110z" />
    <glyph glyph-name="onehalf" unicode="&#xbd;" horiz-adv-x="2325" 
d="M849 871v-244h-708v244h193v425h-171v244h523v-669h163zM1503 1540h371l-1051 -1540h-372zM1936 251h326v-251h-806v200l350 299q48 41 63.5 69.5t15.5 49.5q0 27 -20.5 44.5t-67.5 17.5q-102 0 -147 -84l-255 121q32 63 90.5 112t144 77.5t198.5 28.5q182 0 293.5 -78.5
t111.5 -211.5q0 -44 -14 -87t-52.5 -92.5t-109.5 -111.5z" />
    <glyph glyph-name="threequarters" unicode="&#xbe;" horiz-adv-x="2325" 
d="M913 922q0 -78 -48 -151t-150.5 -119.5t-267.5 -46.5q-119 0 -234 24.5t-193 67.5l114 240q73 -38 154 -57.5t150 -19.5q129 0 127 62q0 25 -23 39t-82 14h-159v200l139 121h-370v244h788v-200l-183 -156q118 -28 178 -97t60 -165zM1503 1540h371l-1051 -1540h-372z
M2303 400v-250h-110v-150h-334v150h-482v206l385 557h368l-357 -513h126v121h294v-121h110z" />
    <glyph glyph-name="questiondown" unicode="&#xbf;" horiz-adv-x="1333" 
d="M651 702q-128 0 -209 74.5t-81 184.5q0 73 37 133t102 95.5t151 35.5t151.5 -35.5t102.5 -95.5t37 -133q0 -110 -81 -184.5t-210 -74.5zM675 -372q-172 0 -308.5 48t-215 141.5t-78.5 230.5q0 99 34 169t84.5 121.5t101.5 93.5q36 30 65.5 58.5t48 58.5t18.5 65h453
q0 -78 -27.5 -136.5t-68 -104t-82.5 -83.5q-44 -40 -75 -77t-31 -79q0 -51 43 -77t104 -26q71 0 132 39.5t97 109.5l392 -195q-56 -107 -149.5 -187t-227.5 -125t-310 -45z" />
    <glyph glyph-name="Agrave" unicode="&#xc0;" horiz-adv-x="1773" 
d="M1118 1665h-330l-434 352h473zM1278 0l-103 268h-585l-104 -268h-528l673 1540h511l673 -1540h-537zM733 642h299l-150 388z" />
    <glyph glyph-name="Aacute" unicode="&#xc1;" horiz-adv-x="1773" 
d="M1419 2017l-433 -352h-330l290 352h473zM1278 0l-103 268h-585l-104 -268h-528l673 1540h511l673 -1540h-537zM733 642h299l-150 388z" />
    <glyph glyph-name="Acircumflex" unicode="&#xc2;" horiz-adv-x="1773" 
d="M887 1835l-185 -170h-308l281 352h423l281 -352h-308zM1278 0l-103 268h-585l-104 -268h-528l673 1540h511l673 -1540h-537zM733 642h299l-150 388z" />
    <glyph glyph-name="Atilde" unicode="&#xc3;" horiz-adv-x="1773" 
d="M739 1773q-86 0 -99 -108h-235q4 176 83.5 278.5t219.5 102.5q48 0 87.5 -13t72.5 -31.5t61 -37.5q29 -20 55 -34t50 -14q86 0 99 101h235q-4 -170 -83.5 -272t-219.5 -102q-48 0 -87.5 13t-72.5 31.5t-61 37.5q-29 20 -54.5 34t-50.5 14zM1278 0l-103 268h-585
l-104 -268h-528l673 1540h511l673 -1540h-537zM733 642h299l-150 388z" />
    <glyph glyph-name="Adieresis" unicode="&#xc4;" horiz-adv-x="1773" 
d="M642 1648q-84 0 -141 53t-57 140q0 88 57 142t141 54q85 0 141.5 -54t56.5 -142q0 -87 -56.5 -140t-141.5 -53zM1131 1648q-84 0 -141 53t-57 140q0 88 57 142t141 54t141 -54t57 -142q0 -87 -57 -140t-141 -53zM1278 0l-103 268h-585l-104 -268h-528l673 1540h511
l673 -1540h-537zM733 642h299l-150 388z" />
    <glyph glyph-name="Aring" unicode="&#xc5;" horiz-adv-x="1654" 
d="M1102 260h-552l-86 -260h-455l570 1551h499l568 -1551h-458zM994 585l-167 506l-169 -506h336zM1025 2115q79 -76 79 -201q0 -128 -79 -203.5t-198 -75.5t-199 75.5t-80 203.5q0 125 80 201t199 76t198 -76zM750 1994.5q-31 -29.5 -31 -80.5t31 -81.5t77 -30.5t77 30.5
t31 81.5t-31 80.5t-77 29.5t-77 -29.5z" />
    <glyph glyph-name="AE" unicode="&#xc6;" horiz-adv-x="2462" 
d="M1617 392h770v-392h-1280v268h-487l-134 -268h-528l812 1540h1588v-392h-741v-180h651v-374h-651v-202zM805 642h302v506h-51z" />
    <glyph glyph-name="Ccedilla" unicode="&#xc7;" horiz-adv-x="1637" 
d="M948 385q104 0 187 47t150 133l328 -292q-219 -283 -636 -306l-18 -81q69 -10 110 -37t59 -64t18 -75q0 -111 -102.5 -174.5t-271.5 -63.5q-56 0 -116.5 13t-98.5 33l61 183q25 -11 59 -19t73 -8q56 0 81 15t25 38q0 20 -21.5 32t-68.5 12h-91l51 211
q-197 40 -345.5 148.5t-232.5 272.5t-84 367q0 237 111.5 418.5t305 284t441.5 102.5q226 0 401 -79.5t290 -228.5l-328 -292q-67 86 -150 133t-187 47q-161 0 -261 -104t-100 -281t100 -281t261 -104z" />
    <glyph glyph-name="Egrave" unicode="&#xc8;" horiz-adv-x="1481" 
d="M983 1665h-330l-433 352h473zM636 392h770v-392h-1281v1540h1252v-392h-741v-180h651v-374h-651v-202z" />
    <glyph glyph-name="Eacute" unicode="&#xc9;" horiz-adv-x="1481" 
d="M1285 2017l-434 -352h-330l291 352h473zM636 392h770v-392h-1281v1540h1252v-392h-741v-180h651v-374h-651v-202z" />
    <glyph glyph-name="Ecircumflex" unicode="&#xca;" horiz-adv-x="1481" 
d="M752 1835l-184 -170h-308l281 352h423l281 -352h-308zM636 392h770v-392h-1281v1540h1252v-392h-741v-180h651v-374h-651v-202z" />
    <glyph glyph-name="Edieresis" unicode="&#xcb;" horiz-adv-x="1481" 
d="M752 1835l-184 -170h-308l281 352h423l281 -352h-308zM636 392h770v-392h-1281v1540h1252v-392h-741v-180h651v-374h-651v-202z" />
    <glyph glyph-name="Igrave" unicode="&#xcc;" horiz-adv-x="770" 
d="M286 1665l-433 352h473l290 -352h-330zM125 0v1540h520v-1540h-520z" />
    <glyph glyph-name="Iacute" unicode="&#xcd;" horiz-adv-x="770" 
d="M154 1665l290 352h473l-433 -352h-330zM125 0v1540h520v-1540h-520z" />
    <glyph glyph-name="Icircumflex" unicode="&#xce;" horiz-adv-x="770" 
d="M385 1835l-185 -170h-308l282 352h422l282 -352h-308zM125 0v1540h520v-1540h-520z" />
    <glyph glyph-name="Idieresis" unicode="&#xcf;" horiz-adv-x="770" 
d="M141 1648q-84 0 -141 53t-57 140q0 88 57 142t141 54t141 -54t57 -142q0 -87 -57 -140t-141 -53zM629 1648q-84 0 -141 53t-57 140q0 88 57 142t141 54t141 -54t57 -142q0 -87 -57 -140t-141 -53zM125 0v1540h520v-1540h-520z" />
    <glyph glyph-name="Eth" unicode="&#xd0;" horiz-adv-x="1861" 
d="M928 1540q258 0 453.5 -93t305.5 -265.5t110 -411.5t-110 -411.5t-305.5 -265.5t-453.5 -93h-759v631h-189v300h189v609h759zM906 405q109 0 192 42t129.5 123.5t46.5 199.5t-46.5 199.5t-129.5 123.5t-192 42h-217v-204h325v-300h-325v-226h217z" />
    <glyph glyph-name="Ntilde" unicode="&#xd1;" horiz-adv-x="1769" 
d="M737 1773q-86 0 -99 -108h-235q4 176 83.5 278.5t219.5 102.5q48 0 87.5 -13t72.5 -31.5t61 -37.5q29 -20 54.5 -34t50.5 -14q86 0 99 101h235q-4 -170 -83.5 -272t-219.5 -102q-48 0 -87.5 13t-72.5 31.5t-61 37.5q-29 20 -55 34t-50 14zM1137 1540h506v-1540h-426
l-586 700v-700h-506v1540h427l585 -700v700z" />
    <glyph glyph-name="Ograve" unicode="&#xd2;" horiz-adv-x="1866" 
d="M834 1665l-434 352h473l291 -352h-330zM933 -35q-251 0 -447.5 104t-309 286t-112.5 415t112.5 415t309 286t447.5 104t447 -104t309 -286t113 -415t-113 -415t-309 -286t-447 -104zM933 385q96 0 174 46.5t124.5 132.5t46.5 206t-46.5 206t-124.5 132.5t-174 46.5
t-174.5 -46.5t-125 -132.5t-46.5 -206t46.5 -206t125 -132.5t174.5 -46.5z" />
    <glyph glyph-name="Oacute" unicode="&#xd3;" horiz-adv-x="1866" 
d="M702 1665l290 352h473l-433 -352h-330zM933 -35q-251 0 -447.5 104t-309 286t-112.5 415t112.5 415t309 286t447.5 104t447 -104t309 -286t113 -415t-113 -415t-309 -286t-447 -104zM933 385q96 0 174 46.5t124.5 132.5t46.5 206t-46.5 206t-124.5 132.5t-174 46.5
t-174.5 -46.5t-125 -132.5t-46.5 -206t46.5 -206t125 -132.5t174.5 -46.5z" />
    <glyph glyph-name="Ocircumflex" unicode="&#xd4;" horiz-adv-x="1866" 
d="M933 1835l-185 -170h-308l282 352h422l282 -352h-308zM933 1575q251 0 447 -104t309 -286t113 -415t-113 -415t-309 -286t-447 -104t-447.5 104t-309 286t-112.5 415t112.5 415t309 286t447.5 104zM933 385q96 0 174 46.5t124.5 132.5t46.5 206t-46.5 206t-124.5 132.5
t-174 46.5t-174.5 -46.5t-125 -132.5t-46.5 -206t46.5 -206t125 -132.5t174.5 -46.5z" />
    <glyph glyph-name="Otilde" unicode="&#xd5;" horiz-adv-x="1866" 
d="M1111 1643q-48 0 -87.5 13t-72.5 31.5t-61 37.5q-29 20 -54.5 34t-50.5 14q-85 0 -99 -108h-235q4 176 83.5 278.5t220.5 102.5q48 0 87 -13t72 -31.5t61 -37.5q29 -20 55 -34t50 -14q86 0 99 101h236q-5 -170 -84.5 -272t-219.5 -102zM933 -35q-251 0 -447.5 104
t-309 286t-112.5 415t112.5 415t309 286t447.5 104t447 -104t309 -286t113 -415t-113 -415t-309 -286t-447 -104zM933 385q96 0 174 46.5t124.5 132.5t46.5 206t-46.5 206t-124.5 132.5t-174 46.5t-174.5 -46.5t-125 -132.5t-46.5 -206t46.5 -206t125 -132.5t174.5 -46.5z
" />
    <glyph glyph-name="Odieresis" unicode="&#xd6;" horiz-adv-x="1866" 
d="M689 1648q-85 0 -141.5 53t-56.5 140q0 88 56.5 142t141.5 54q84 0 141 -54t57 -142q0 -87 -57 -140t-141 -53zM1177 1648q-84 0 -141 53t-57 140q0 88 57 142t141 54t141 -54t57 -142q0 -87 -57 -140t-141 -53zM933 -35q-251 0 -447.5 104t-309 286t-112.5 415
t112.5 415t309 286t447.5 104t447 -104t309 -286t113 -415t-113 -415t-309 -286t-447 -104zM933 385q96 0 174 46.5t124.5 132.5t46.5 206t-46.5 206t-124.5 132.5t-174 46.5t-174.5 -46.5t-125 -132.5t-46.5 -206t46.5 -206t125 -132.5t174.5 -46.5z" />
    <glyph glyph-name="multiply" unicode="&#xd7;" horiz-adv-x="1364" 
d="M1210 1034l-264 -264l264 -264l-264 -264l-264 264l-264 -264l-264 264l264 264l-264 264l264 264l264 -264l264 264z" />
    <glyph glyph-name="Oslash" unicode="&#xd8;" horiz-adv-x="1866" 
d="M1511 1384q137 -108 214 -265.5t77 -348.5q0 -233 -113 -415t-309 -286t-447 -104q-205 0 -376 72l-137 -191h-286l220 310q-136 108 -213 265.5t-77 348.5q0 233 112.5 415t309 286t447.5 104q204 0 376 -72l136 191h286zM587 770q0 -125 51 -213l411 578
q-53 20 -116 20q-96 0 -174.5 -46.5t-125 -132.5t-46.5 -206zM933 385q96 0 174 46.5t124.5 132.5t46.5 206q0 125 -50 213l-412 -578q54 -20 117 -20z" />
    <glyph glyph-name="Ugrave" unicode="&#xd9;" horiz-adv-x="1725" 
d="M768 1665l-434 352h473l291 -352h-330zM862 -35q-354 0 -552 191t-198 537v847h519v-832q0 -117 29 -188t81.5 -103t125.5 -32q72 0 125 32t81.5 103t28.5 188v832h511v-847q0 -346 -198 -537t-553 -191z" />
    <glyph glyph-name="Uacute" unicode="&#xda;" horiz-adv-x="1725" 
d="M636 1665l290 352h473l-433 -352h-330zM862 -35q-354 0 -552 191t-198 537v847h519v-832q0 -117 29 -188t81.5 -103t125.5 -32q72 0 125 32t81.5 103t28.5 188v832h511v-847q0 -346 -198 -537t-553 -191z" />
    <glyph glyph-name="Ucircumflex" unicode="&#xdb;" horiz-adv-x="1725" 
d="M867 1835l-185 -170h-308l282 352h422l282 -352h-308zM1102 1540h511v-847q0 -346 -198 -537t-553 -191q-354 0 -552 191t-198 537v847h519v-832q0 -117 29 -188t81.5 -103t125.5 -32q72 0 125 32t81.5 103t28.5 188v832z" />
    <glyph glyph-name="Udieresis" unicode="&#xdc;" horiz-adv-x="1725" 
d="M623 1648q-85 0 -141.5 53t-56.5 140q0 88 56.5 142t141.5 54q84 0 141 -54t57 -142q0 -87 -57 -140t-141 -53zM1111 1648q-84 0 -141 53t-57 140q0 88 57 142t141 54t141 -54t57 -142q0 -87 -57 -140t-141 -53zM862 -35q-354 0 -552 191t-198 537v847h519v-832
q0 -117 29 -188t81.5 -103t125.5 -32q72 0 125 32t81.5 103t28.5 188v832h511v-847q0 -346 -198 -537t-553 -191z" />
    <glyph glyph-name="Yacute" unicode="&#xdd;" horiz-adv-x="1562" 
d="M1313 2017l-433 -352h-330l290 352h473zM1621 1540l-580 -981v-559h-520v565l-580 975h547l315 -532l317 532h501z" />
    <glyph glyph-name="Thorn" unicode="&#xde;" horiz-adv-x="1540" 
d="M913 1225q157 0 289 -75.5t212 -215.5t80 -333q0 -194 -80 -333.5t-212 -214.5t-289 -75q-198 0 -306 103v-508h-497v2059h497v-503q105 96 306 96zM794 365q55 0 99.5 26.5t70.5 79t26 130.5q0 117 -56.5 177t-139.5 60q-82 0 -139 -60t-57 -177q0 -78 26 -130.5
t70.5 -79t99.5 -26.5z" />
    <glyph glyph-name="germandbls" unicode="&#xdf;" horiz-adv-x="1571" 
d="M1245 871q136 -53 208 -154.5t72 -247.5q0 -155 -72 -265t-202 -168t-305 -58q-69 0 -145 9.5t-123 25.5l48 379q66 -27 145 -27q65 0 107.5 29.5t42.5 87.5q0 112 -167 114h-115v374q77 4 123.5 45.5t46.5 108.5q0 66 -39.5 107t-103.5 41q-73 0 -116 -43t-43 -122
v-1107h-497v1038q0 152 52 267.5t142 193t208.5 116.5t250.5 39q201 0 340 -64.5t211 -173.5t72 -243q0 -93 -38 -168.5t-103 -133.5z" />
    <glyph glyph-name="agrave" unicode="&#xe0;" horiz-adv-x="1406" 
d="M937 1335h-330l-433 352h473zM649 1225q207 0 352.5 -61t222 -189t76.5 -328v-647h-462v158q-87 -180 -341 -180q-147 0 -246.5 50.5t-149.5 135.5t-50 188q0 175 134.5 269t415.5 94h200q-11 69 -66 105t-161 36q-81 0 -164 -25t-144 -70l-158 328q108 66 254.5 101
t286.5 35zM647 277q51 0 93 27.5t63 87.5v83h-123q-79 0 -115.5 -25.5t-36.5 -75.5q0 -41 31.5 -69t87.5 -28z" />
    <glyph glyph-name="aacute" unicode="&#xe1;" horiz-adv-x="1406" 
d="M1239 1687l-434 -352h-330l291 352h473zM649 1225q207 0 352.5 -61t222 -189t76.5 -328v-647h-462v158q-87 -180 -341 -180q-147 0 -246.5 50.5t-149.5 135.5t-50 188q0 175 134.5 269t415.5 94h200q-11 69 -66 105t-161 36q-81 0 -164 -25t-144 -70l-158 328
q108 66 254.5 101t286.5 35zM647 277q51 0 93 27.5t63 87.5v83h-123q-79 0 -115.5 -25.5t-36.5 -75.5q0 -41 31.5 -69t87.5 -28z" />
    <glyph glyph-name="acircumflex" unicode="&#xe2;" horiz-adv-x="1406" 
d="M462 1318q-84 0 -141 53t-57 140q0 88 57 142t141 54t141 -54t57 -142q0 -87 -57 -140t-141 -53zM950 1318q-84 0 -141 53t-57 140q0 88 57 142t141 54q85 0 141.5 -54t56.5 -142q0 -87 -56.5 -140t-141.5 -53zM649 1225q207 0 352.5 -61t222 -189t76.5 -328v-647h-462
v158q-87 -180 -341 -180q-147 0 -246.5 50.5t-149.5 135.5t-50 188q0 175 134.5 269t415.5 94h200q-11 69 -66 105t-161 36q-81 0 -164 -25t-144 -70l-158 328q108 66 254.5 101t286.5 35zM647 277q51 0 93 27.5t63 87.5v83h-123q-79 0 -115.5 -25.5t-36.5 -75.5
q0 -41 31.5 -69t87.5 -28z" />
    <glyph glyph-name="atilde" unicode="&#xe3;" horiz-adv-x="1406" 
d="M559 1443q-86 0 -99 -108h-236q5 176 84.5 278.5t219.5 102.5q48 0 87.5 -13t72.5 -31.5t61 -37.5q29 -20 54.5 -34t50.5 -14q85 0 99 101h235q-4 -170 -83.5 -272t-220.5 -102q-48 0 -87 13t-72 31.5t-61 37.5q-29 20 -55 34t-50 14zM649 1225q207 0 352.5 -61t222 -189
t76.5 -328v-647h-462v158q-87 -180 -341 -180q-147 0 -246.5 50.5t-149.5 135.5t-50 188q0 175 134.5 269t415.5 94h200q-11 69 -66 105t-161 36q-81 0 -164 -25t-144 -70l-158 328q108 66 254.5 101t286.5 35zM647 277q51 0 93 27.5t63 87.5v83h-123q-79 0 -115.5 -25.5
t-36.5 -75.5q0 -41 31.5 -69t87.5 -28z" />
    <glyph glyph-name="adieresis" unicode="&#xe4;" horiz-adv-x="1406" 
d="M937 1335h-330l-433 352h473zM649 1225q207 0 352.5 -61t222 -189t76.5 -328v-647h-462v158q-87 -180 -341 -180q-147 0 -246.5 50.5t-149.5 135.5t-50 188q0 175 134.5 269t415.5 94h200q-11 69 -66 105t-161 36q-81 0 -164 -25t-144 -70l-158 328q108 66 254.5 101
t286.5 35zM647 277q51 0 93 27.5t63 87.5v83h-123q-79 0 -115.5 -25.5t-36.5 -75.5q0 -41 31.5 -69t87.5 -28z" />
    <glyph glyph-name="aring" unicode="&#xe5;" horiz-adv-x="1406" 
d="M706 1298q-130 0 -219 85.5t-89 209.5t89 209.5t219 85.5q131 0 219.5 -85.5t88.5 -209.5t-88.5 -209.5t-219.5 -85.5zM706 1712q-49 0 -84 -33t-35 -86t35 -86t84 -33q50 0 84.5 33t34.5 86t-34.5 86t-84.5 33zM649 1225q207 0 352.5 -61t222 -189t76.5 -328v-647h-462
v158q-87 -180 -341 -180q-147 0 -246.5 50.5t-149.5 135.5t-50 188q0 175 134.5 269t415.5 94h200q-11 69 -66 105t-161 36q-81 0 -164 -25t-144 -70l-158 328q108 66 254.5 101t286.5 35zM647 277q51 0 93 27.5t63 87.5v83h-123q-79 0 -115.5 -25.5t-36.5 -75.5
q0 -41 31.5 -69t87.5 -28z" />
    <glyph glyph-name="ae" unicode="&#xe6;" horiz-adv-x="2207" 
d="M2160 607q0 -69 -8 -125h-834q53 -137 237 -137q73 0 132.5 22t120.5 66l260 -261q-189 -194 -519 -194q-145 0 -278 42.5t-235 137.5q-55 -68 -123.5 -108t-149 -56t-169.5 -16q-256 0 -399.5 107.5t-143.5 284.5q0 109 59.5 187.5t181.5 121.5t309 43h198
q-13 63 -66.5 98.5t-156.5 35.5q-85 0 -167 -25t-143 -70l-158 328q108 66 251.5 101t287.5 35q133 0 244.5 -32t190.5 -100q184 132 425 132q127 0 244.5 -40t209.5 -118.5t145.5 -194t53.5 -265.5zM1498 887q-74 0 -125 -43.5t-68 -121.5h380q-15 78 -64.5 121.5
t-122.5 43.5zM651 277q145 0 152 163v42h-123q-81 0 -116.5 -27.5t-35.5 -73.5q0 -47 31 -75.5t92 -28.5z" />
    <glyph glyph-name="ccedilla" unicode="&#xe7;" horiz-adv-x="1353" 
d="M755 365q64 0 117 37.5t92 121.5l385 -190q-58 -156 -196.5 -248.5t-338.5 -105.5l-22 -94q69 -10 110 -37t59 -64t18 -75q0 -111 -103 -174.5t-271 -63.5q-56 0 -116.5 13t-99.5 33l62 183q25 -11 58.5 -19t73.5 -8q56 0 81 15t25 38q0 20 -21.5 32t-69.5 12h-90l53 227
q-236 54 -375.5 214.5t-139.5 390.5q0 182 91 322.5t251.5 220t368.5 79.5q219 0 374.5 -94t217.5 -262l-385 -189q-39 83 -92 120.5t-117 37.5q-56 0 -102.5 -26t-74.5 -78.5t-28 -130.5q0 -79 28 -132t74.5 -79.5t102.5 -26.5z" />
    <glyph glyph-name="egrave" unicode="&#xe8;" horiz-adv-x="1437" 
d="M950 1335h-330l-433 352h473zM1390 603q0 -38 -4 -85q-1 -17 -2 -32h-836q57 -141 242 -141q82 0 137.5 22t113.5 66l259 -261q-87 -96 -216.5 -145t-309.5 -49q-221 0 -384.5 81.5t-253.5 223t-90 320.5q0 182 89.5 322.5t244 220t348.5 79.5q134 0 253.5 -40
t211.5 -118.5t144.5 -195t52.5 -268.5zM733 887q-78 0 -128.5 -42.5t-65.5 -118.5h387q-15 76 -66 118.5t-127 42.5z" />
    <glyph glyph-name="eacute" unicode="&#xe9;" horiz-adv-x="1437" 
d="M1252 1687l-434 -352h-330l291 352h473zM1390 603q0 -38 -4 -85q-1 -17 -2 -32h-836q57 -141 242 -141q82 0 137.5 22t113.5 66l259 -261q-87 -96 -216.5 -145t-309.5 -49q-221 0 -384.5 81.5t-253.5 223t-90 320.5q0 182 89.5 322.5t244 220t348.5 79.5q134 0 253.5 -40
t211.5 -118.5t144.5 -195t52.5 -268.5zM733 887q-78 0 -128.5 -42.5t-65.5 -118.5h387q-15 76 -66 118.5t-127 42.5z" />
    <glyph glyph-name="ecircumflex" unicode="&#xea;" horiz-adv-x="1437" 
d="M719 1505l-184 -170h-308l281 352h423l281 -352h-308zM1390 603q0 -38 -4 -85q-1 -17 -2 -32h-836q57 -141 242 -141q82 0 137.5 22t113.5 66l259 -261q-87 -96 -216.5 -145t-309.5 -49q-221 0 -384.5 81.5t-253.5 223t-90 320.5q0 182 89.5 322.5t244 220t348.5 79.5
q134 0 253.5 -40t211.5 -118.5t144.5 -195t52.5 -268.5zM733 887q-78 0 -128.5 -42.5t-65.5 -118.5h387q-15 76 -66 118.5t-127 42.5z" />
    <glyph glyph-name="edieresis" unicode="&#xeb;" horiz-adv-x="1437" 
d="M475 1318q-84 0 -141 53t-57 140q0 88 57 142t141 54t141 -54t57 -142q0 -87 -57 -140t-141 -53zM964 1318q-85 0 -141.5 53t-56.5 140q0 88 56.5 142t141.5 54q84 0 141 -54t57 -142q0 -87 -57 -140t-141 -53zM1390 603q0 -38 -4 -85q-1 -17 -2 -32h-836
q57 -141 242 -141q82 0 137.5 22t113.5 66l259 -261q-87 -96 -216.5 -145t-309.5 -49q-221 0 -384.5 81.5t-253.5 223t-90 320.5q0 182 89.5 322.5t244 220t348.5 79.5q134 0 253.5 -40t211.5 -118.5t144.5 -195t52.5 -268.5zM733 887q-78 0 -128.5 -42.5t-65.5 -118.5h387
q-15 76 -66 118.5t-127 42.5z" />
    <glyph glyph-name="igrave" unicode="&#xec;" horiz-adv-x="717" 
d="M260 1335l-434 352h473l291 -352h-330zM110 0v1203h497v-1203h-497z" />
    <glyph glyph-name="iacute" unicode="&#xed;" horiz-adv-x="717" 
d="M128 1335l290 352h473l-433 -352h-330zM110 0v1203h497v-1203h-497z" />
    <glyph glyph-name="icircumflex" unicode="&#xee;" horiz-adv-x="717" 
d="M359 1483l-130 -148h-308l231 352h413l231 -352h-308zM110 0v1203h497v-1203h-497z" />
    <glyph glyph-name="idieresis" unicode="&#xef;" horiz-adv-x="717" 
d="M154 1318q-78 0 -130.5 53t-52.5 140q0 88 52.5 142t130.5 54q76 0 128 -54t52 -142q0 -87 -52 -140t-128 -53zM565 1318q-77 0 -129.5 53t-52.5 140q0 88 52.5 142t129.5 54q76 0 128.5 -54t52.5 -142q0 -87 -52.5 -140t-128.5 -53zM110 0v1203h497v-1203h-497z" />
    <glyph glyph-name="eth" unicode="&#xf0;" horiz-adv-x="1487" 
d="M1276 1338q165 -225 165 -594q0 -247 -95 -421t-265.5 -266t-398.5 -92q-178 0 -322 67t-229 188t-85 284q0 148 74 259t197.5 172.5t272.5 61.5q208 0 323 -95q-7 173 -86 273l-510 -185l-77 200l321 117q-38 4 -81 4q-60 0 -130 -9t-137 -30l-46 358q85 18 167 28
t176 10q363 0 597 -163l204 75l77 -201zM722 323q71 0 120 42t49 115q0 72 -49 115t-120 43t-120.5 -43t-49.5 -115q0 -73 49.5 -115t120.5 -42z" />
    <glyph glyph-name="ntilde" unicode="&#xf1;" horiz-adv-x="1544" 
d="M634 1443q-86 0 -99 -108h-236q5 176 84.5 278.5t219.5 102.5q48 0 87.5 -13t72 -31.5t60.5 -37.5q30 -20 55.5 -34t49.5 -14q86 0 99 101h236q-5 -170 -84.5 -272t-219.5 -102q-48 0 -87.5 13t-72 31.5t-60.5 37.5q-30 20 -55.5 34t-49.5 14zM946 1225
q139 0 250.5 -55.5t177 -174.5t65.5 -309v-686h-497v601q0 112 -40 159t-108 47q-50 0 -92.5 -23t-68.5 -76t-26 -143v-565h-497v1203h473v-118q72 70 164.5 105t198.5 35z" />
    <glyph glyph-name="ograve" unicode="&#xf2;" horiz-adv-x="1492" 
d="M640 1335l-433 352h473l290 -352h-330zM746 -22q-204 0 -362 80t-248 221t-90 324q0 182 90 322.5t248 220t362 79.5t362 -79.5t247.5 -220t89.5 -322.5q0 -183 -89.5 -324t-247.5 -221t-362 -80zM746 365q82 0 139 60.5t57 177.5q0 78 -26 130.5t-70.5 78.5t-99.5 26
t-99.5 -26t-70.5 -78.5t-26 -130.5q0 -117 56.5 -177.5t139.5 -60.5z" />
    <glyph glyph-name="oacute" unicode="&#xf3;" horiz-adv-x="1492" 
d="M508 1335l291 352h473l-434 -352h-330zM746 -22q-204 0 -362 80t-248 221t-90 324q0 182 90 322.5t248 220t362 79.5t362 -79.5t247.5 -220t89.5 -322.5q0 -183 -89.5 -324t-247.5 -221t-362 -80zM746 365q82 0 139 60.5t57 177.5q0 78 -26 130.5t-70.5 78.5t-99.5 26
t-99.5 -26t-70.5 -78.5t-26 -130.5q0 -117 56.5 -177.5t139.5 -60.5z" />
    <glyph glyph-name="ocircumflex" unicode="&#xf4;" horiz-adv-x="1492" 
d="M739 1505l-185 -170h-308l282 352h422l282 -352h-308zM746 1225q204 0 362 -79.5t247.5 -220t89.5 -322.5q0 -183 -89.5 -324t-247.5 -221t-362 -80t-362 80t-248 221t-90 324q0 182 90 322.5t248 220t362 79.5zM746 365q82 0 139 60.5t57 177.5q0 78 -26 130.5
t-70.5 78.5t-99.5 26t-99.5 -26t-70.5 -78.5t-26 -130.5q0 -117 56.5 -177.5t139.5 -60.5z" />
    </font>
</defs>
</svg>
